<?xml version="1.0" standalone="no"?>
<!DOCTYPE svg PUBLIC "-//W3C//DTD SVG 1.1//EN" "http://www.w3.org/Graphics/SVG/1.1/DTD/svg11.dtd" >
<svg xmlns="http://www.w3.org/2000/svg">
<metadata>Generated by IcoMoon</metadata>
<defs>
<font id="icons" horiz-adv-x="1024">
<font-face units-per-em="1024" ascent="960" descent="-64" />
<missing-glyph horiz-adv-x="1024" />
<glyph unicode="&#x20;" horiz-adv-x="0" d="" />
<glyph unicode="&#x21;" glyph-name="63-limpieza" d="M660 20l-2 70 2 2c6 12 12 24 18 34 34 50 80 80 132 90 12 2 24 4 36 6l-2 44h10c-8 24-10 58 12 94 38 64 38 112 18 142-10 14-22 24-38 32s-34 12-52 12c-50 2-104-20-128-68l-30 14c30 62 96 90 158 88 24 0 48-6 68-16s38-24 50-44c26-40 28-100-18-176-18-32-12-60-6-78h14l2-48c22-4 44-12 66-22 14-6 28-14 42-22l4-4v-6l2-26v-20l-18 10c-8 4-18 8-28 10-18 4-36 2-54-4-56-22-78-96-36-142-76-18-150-8-222 28zM274 948c-78 0-142-60-148-138 18 48 76 74 128 60s82-76 130-88c-102-2-144 150-240 0-2-2-2-2-4-4 8-54 50-98 104-108v-52h60v52c52 14 90 56 98 110 0 0 0 0 2 0h18c2 6 2 12 2 20 0 82-68 148-150 148zM168 124h-70c-42 102-4 196 80 266h102v10l-102 10c-10 26-16 52-22 78l-124-108-30 38 146 222h58l58-106h12l72 106h46l144-238-32-30-126 120c-8-36-16-70-24-100 82-70 108-166 78-268h-78l-34-156h-124zM602-16l-60 20c2 12 4 24 2 38-12 4-24 6-36 10-14-6-24-16-32-26l-62 20v-36l188-62 46 24v32zM516 76l40-12 110 390-40 16zM976 118c-16 2-32-4-44-16-12-10-22-26-24-44-4-18 0-36 6-50 8-16 20-28 38-30 16-4 32 2 44 14s22 28 24 46c4 18 0 36-6 50-8 16-20 26-38 30z" />
<glyph unicode="&#x22;" glyph-name="64-reloj" d="M922 906c-74 58-156 80-226 10-10-10-16-20-22-30 118-40 218-124 278-232 10 10 20 22 30 36 54 84 12 158-60 216zM350 886c0 2-2 4-2 4-60 94-160 86-246 18s-118-164-40-244c4-2 8-6 12-10 60 108 158 192 276 232zM894 624c-52 94-138 166-242 200-44 16-90 24-140 24s-96-8-140-24c-104-34-190-106-242-200-34-64-56-136-56-214 0-114 44-218 116-294l-38-54-28-38c-18-24-14-58 12-78 10-6 20-10 32-10 18 0 34 8 46 22l22 32 40 54c68-46 148-70 236-70s168 24 236 70l40-54 22-32c12-14 28-22 46-22 12 0 22 4 32 10 26 20 30 54 12 78l-26 38-40 54c72 76 116 180 116 294 0 78-20 150-56 214zM512 84c-180 0-326 146-326 326s146 326 326 326c180 0 326-146 326-326s-146-326-326-326zM544 616c-2 16-14 28-30 30-16 0-32-12-34-30l-16-192-90-176c-8-12-4-30 8-38 14-12 34-8 44 6l128 168c6 8 8 16 8 26z" />
<glyph unicode="&#x23;" glyph-name="65-antena" d="M258 204c-28-36-74-98-102-134l-46-62c-28-36-12-66 34-66h126c46 0 122 0 168 0h128c46 0 60 30 32 66l-46 62c-28 36-72 98-100 134l-12 16-160 14zM858 270l-94 110-136 158c-30 36-78 92-108 128l-62 70-68 80-100 118c-30 34-56 26-60-20l-10-194c-2-46-8-120-10-166l-10-194c-2-46 32-86 78-92h2l160-16 30-2c46-4 122-12 168-16l192-20c46-4 58 20 28 56zM918 864c-20 24-60 22-92-2-16-14-26-32-28-50l-98-24c-32-8-82-20-112-28l-90-22 48-54c22 4 44 10 60 14l114 28c32 8 50-12 40-42l-32-112c-6-20-16-50-22-76l50-58 32 112c10 30 24 80 32 110l28 96c18 0 34 8 50 20 30 24 40 64 20 88z" />
<glyph unicode="&#x24;" glyph-name="66-tv" d="M2 830h1020v-626h-400l-58-82c104-4 208-24 312-56h-728c104 32 208 52 312 56l-58 82h-400zM80 760h864v-488h-864zM134 310c12 40 674 412 770 412v-412z" />
<glyph unicode="&#x25;" glyph-name="67-ducha" d="M760 890h-232c-144 0-262-116-264-260l-242-112c-12-4-22-20-22-34v-82c0-14 12-26 24-26h578c14 0 26 12 26 26v82c0 14-10 30-24 34l-244 114c4 90 78 162 168 162h232c94 0 170-76 170-168v-620h94v620c0 146-118 264-264 264zM86 342c-20 0-38-16-38-36v-72c0-20 18-36 38-36s36 16 36 36v72c0 20-16 36-36 36zM86 150c-20 0-38-16-38-36v-70c0-20 18-38 38-38s36 18 36 38v70c0 20-16 36-36 36zM238 342c-22 0-38-16-38-36v-72c0-20 16-36 38-36 20 0 36 16 36 36v72c0 20-16 36-36 36zM238 150c-22 0-38-16-38-36v-70c0-20 16-38 38-38 20 0 36 18 36 38v70c0 20-16 36-36 36zM388 150c-20 0-36-16-36-36v-70c0-20 16-38 36-38 22 0 38 18 38 38v70c0 20-16 36-38 36zM388 342c-20 0-36-16-36-36v-72c0-20 16-36 36-36 22 0 38 16 38 36v72c0 20-16 36-38 36zM540 342c-20 0-36-16-36-36v-72c0-20 16-36 36-36s38 16 38 36v72c0 20-18 36-38 36zM540 150c-20 0-36-16-36-36v-70c0-20 16-38 36-38s38 18 38 38v70c0 20-18 36-38 36z" />
<glyph unicode="&#x26;" glyph-name="68-serv-habitacion" d="M450 596c0-24 32-42 72-42h240c40 0 72 18 72 42zM488 808c0-10 2-18 2-28-30-10-50-32-50-58 0-38 40-66 92-66 10-14 22-26 34-38h162c46 42 78 104 78 190zM466 722c0 12 10 24 28 30 4-26 12-48 22-70-28 6-50 20-50 40zM654 960c-2-12-4-22-4-32 0-2 0-4 0-4 2-2 2-4 4-6 2-4 4-8 8-14 4-4 6-8 10-14 0-4 2-6 2-10 0-2 0-4 0-6 0 0 0-2 0-2 0-2 0-2 0-2-2-8-4-12-6-18-4-4-8-8-14-12 2 6 4 10 4 16 2 6 2 10 2 14 0 2 0 2 0 2s0 2 0 2c0 0 0 2-2 2 0 2 0 4-2 6-2 4-4 8-8 12-4 6-6 10-10 16 0 2-2 6-2 10-2 4 0 8 0 10 2 6 4 12 6 18 4 4 8 8 12 12zM622 900c0-6 0-12 2-16 0-2 0-2 2-4 0-2 2-2 4-6 2-2 4-4 4-8 2-2 2-4 2-6 0 0 0-2 0-4 0 0 0-2 0-2-2-4-2-6-6-8-2-4-4-6-8-6 0 4 0 6 0 8 0 4 0 6 0 8 0 0 0 2 0 0-2 2-2 2-2 2v2c-2 0-2 2-4 4-2 4-4 6-6 10 0 0 0 2 0 4v2c0 2 0 2 0 2v2c0 0 0 0 0 2s2 6 4 8c2 2 6 4 8 6zM214 298h188c0 52 0 110 0 122 0 6 0 10 2 16-14 12-32 22-50 30-78 32-160 12-184-42-16-42 2-90 44-126zM136 536c0 28-22 50-50 50s-50-22-50-50v-600h100v116h752v-116h100v226h-852zM890 466c0 0-378 0-400 0-32 0-46-24-46-46 0-4 0-16 0-30 0-28 0-66 0-100 0-44 0-84 0-84h546v158c0 56-46 102-100 102z" />
<glyph unicode="&#x27;" glyph-name="69-router" d="M852 342h-518l-6 106c0 32-28 60-62 60s-62-28-62-60l-6-106h-26c-94 0-168-74-168-166v-24c0-92 74-166 168-166h680c92 0 168 74 168 166v24c0 92-76 166-168 166zM638 112c-34 0-62 30-62 64 0 36 28 64 62 64 36 0 64-28 64-64 0-34-28-64-64-64zM830 112c-36 0-64 30-64 64 0 36 28 64 64 64 34 0 62-28 62-64 0-34-28-64-62-64zM398 696c-4 0-8 0-12 2-38 14-78 22-120 22-40 0-80-8-118-22-16-6-36 2-42 20-6 16 4 34 20 40 44 16 92 24 140 24 50 0 98-8 142-24 18-6 26-24 20-42-6-12-18-20-30-20zM452 812c-4 0-8 0-12 2-56 22-114 32-174 32-58 0-116-10-172-32-16-6-34 2-40 18s2 36 18 42c62 24 128 36 194 36 68 0 134-12 196-38 16-6 26-24 18-40-4-14-16-20-28-20zM398 696c-4 0-8 0-12 2-38 14-78 22-120 22-40 0-80-8-118-22-16-6-36 2-42 20-6 16 4 34 20 40 44 16 92 24 140 24 50 0 98-8 142-24 18-6 26-24 20-42-6-12-18-20-30-20zM344 580c-4 0-6 0-10 2-44 14-90 14-134 0-16-6-34 4-40 20-6 18 4 36 20 40 58 18 118 18 174 0 16-6 26-24 20-40-4-14-16-22-30-22z" />
<glyph unicode="&#x28;" glyph-name="70-ducha" d="M158 338c-18 0-30-14-30-30v-88c0-18 14-30 30-30 14 0 30 12 30 30v88c0 14-14 30-30 30zM334 338c-16 0-28-14-28-30v-88c0-18 12-30 28-30 18 0 30 12 30 30v88c0 14-14 30-30 30zM510 338c-18 0-30-14-30-30v-88c0-18 14-30 30-30s30 12 30 30v88c2 14-14 30-30 30zM246 140c-18 0-30-12-30-30v-86c0-18 14-30 30-30s30 12 30 30v86c2 18-14 30-30 30zM422 140c-16 0-30-12-30-30v-86c0-18 14-30 30-30 18 0 30 12 30 30v86c0 18-12 30-30 30zM882 614c0 164-136 300-300 300-142 0-264-104-292-238-106-22-186-114-186-228 0-38 32-70 70-70h326c38 0 70 32 70 70 0 102-66 188-156 220 24 72 90 124 170 124 98 0 178-80 178-178v-570c0-34 28-58 62-58s62 26 62 58c-4 0-4 570-4 570z" />
<glyph unicode="&#x29;" glyph-name="71-candado" d="M758 512v202c0 136-110 246-246 246s-246-110-246-246v-202c-58-62-94-144-94-236 0-186 152-340 340-340s340 154 340 340c0 92-36 174-94 236zM512 884c94 0 168-76 168-170v-142c-50 28-106 44-168 44s-118-16-168-44v142c0 94 76 170 168 170zM570 20v148c12 14 20 34 20 54 0 44-34 78-78 78s-78-34-78-78c0-18 6-36 16-48v-154c-114 28-202 132-202 256 0 80 38 152 94 202h2c46 38 104 62 168 62s122-24 168-62h2c58-50 94-122 94-202 0-124-90-230-206-256z" />
<glyph unicode="&#x2a;" glyph-name="130-estrella" d="M916 526l-202-196 48-278-248 132-250-132 48 278-202 196 278 40 126 252 124-252z" />
<glyph unicode="&#x2b;" glyph-name="73-linkedin" d="M512-64c-282 0-512 230-512 512s230 512 512 512c282 0 512-230 512-512s-230-512-512-512zM512 914c-258 0-466-208-466-466s208-466 466-466c258 0 466 208 466 466s-208 466-466 466zM792 424v-184h-106v172c0 44-16 74-56 74-28 0-46-20-54-40-2-6-4-16-4-26v-180h-106c0 0 2 292 0 322h106v-46c14 22 40 54 96 54 72 0 124-46 124-146zM354 716c-36 0-60-24-60-54 0-32 22-56 58-56h2c36 0 60 24 60 56-2 30-24 54-60 54zM300 240h106v322h-106z" />
<glyph unicode="&#x2c;" glyph-name="74-vimeo" d="M512-64c-282 0-512 230-512 512s230 512 512 512c282 0 512-230 512-512s-230-512-512-512zM512 914c-258 0-466-208-466-466s208-466 466-466c258 0 466 208 466 466s-208 466-466 466zM710 642c54-2 80-32 80-92 0-4 0-8 0-12-2-50-40-120-114-208-74-92-138-138-192-138-32 0-60 28-82 84l-22 78-24 76c-16 56-34 84-52 84-6 0-20-8-44-24l-26 32 80 68c36 28 64 44 84 46 2 0 4 0 6 0 40 0 64-28 74-82 4-32 10-58 12-78 4-20 6-34 10-42 12-52 26-80 40-80 12 0 30 18 54 52 22 36 34 62 36 78 2 4 2 8 2 10 0 24-14 34-38 34-14 0-28-2-42-8 26 82 76 122 152 122 2 0 4 0 6 0z" />
<glyph unicode="&#x2d;" glyph-name="75-twitter" d="M512-64c-282 0-512 230-512 512s230 512 512 512c282 0 512-230 512-512s-230-512-512-512zM512 914c-258 0-466-208-466-466s208-466 466-466c258 0 466 208 466 466s-208 466-466 466zM544 614v128h-84c0-4-2-10-2-16 0-4-2-6-2-8-8-48-32-80-74-98-12-6-24-6-36-6v-104h60c0-144 0-218 0-222s0-6 0-8c8-64 42-102 100-116 24-8 50-10 76-10 32 2 64 6 96 18v120c-18-6-36-10-50-14-30-10-54-4-74 16-2 2-6 6-6 10-2 14-4 30-4 46v160h130v104z" />
<glyph unicode="&#x2e;" glyph-name="76-foursquare" d="M512-64c-282 0-512 230-512 512s230 512 512 512c282 0 512-230 512-512s-230-512-512-512zM512 914c-258 0-466-208-466-466s208-466 466-466c258 0 466 208 466 466s-208 466-466 466zM406 520c-4 4-10 6-16 6s-10-2-14-6l-48-50c-4-4-6-8-6-14s2-10 6-14l164-166c4-4 8-6 14-6 0 0 0 0 2 0 4 0 10 2 14 6l298 296c4 4 6 10 6 16 0 4-2 10-6 14l-50 48c-4 4-8 6-14 6s-10-2-14-6l-234-234zM802 502l-252-252c-12-12-24-18-40-18h-12l-2 2c-10 2-20 8-28 16l-166 166c-10 10-16 24-16 40s6 30 16 40l50 50c10 10 24 16 40 16s30-6 40-16l78-78 162 164-108 106c-16 16-32 22-52 22-22 0-38-6-52-22l-240-238c-14-14-22-32-22-52s8-38 22-52l240-238c14-16 30-22 52-22 20 0 38 6 52 22l238 238c14 14 22 32 22 52s-8 38-22 52z" />
<glyph unicode="&#x2f;" glyph-name="77-Flickr" d="M512-64c-282 0-512 230-512 512s230 512 512 512c282 0 512-230 512-512s-230-512-512-512zM512 914c-258 0-466-208-466-466s208-466 466-466c258 0 466 208 466 466s-208 466-466 466zM836 448c0-82-66-148-148-148s-148 66-148 148c0 82 66 148 148 148s148-66 148-148zM336 596c-82 0-148-66-148-148s66-148 148-148c82 0 148 66 148 148s-66 148-148 148zM336 334c-64 0-114 52-114 114s50 114 114 114c62 0 114-52 114-114s-52-114-114-114z" />
<glyph unicode="&#x30;" glyph-name="53-spa" d="M56 34l8-6c28-18 60-28 92-28h234c32 0 64 10 92 28l8 6c22 14 38 36 48 60 18-14 40-24 64-28l28-6c10-2 20-2 30-2 42 0 82 16 112 46 16 14 26 30 34 48 14-4 28-6 44-6 6 0 10 0 16 2 52 4 98 36 124 82l14 26c26 46 26 100 4 148-10 18-22 34-36 48 10 16 18 34 22 54 12 52-4 106-40 144l-20 22c-30 32-72 50-116 50-8 0-16 0-24-2-20-2-40-10-56-20-12 16-28 30-46 40-24 14-52 20-80 20-24 0-46-4-68-14l-26-14c-22-10-42-24-56-44 4 14 8 28 8 42v64c0 56-46 102-100 102h-196c-56 0-102-46-102-102v-64c0-30 14-58 34-76l-40-40c-42-40-66-96-66-154v-322c0-42 22-82 56-104zM186 632c8 6 10 14 10 24v30c0 8-6 16-14 16h-8c-16 0-30 12-30 28v64c0 16 14 30 30 30h196c14 0 28-14 28-30v-64c0-16-14-28-28-28h-6c-8 0-16-8-16-16v-30c0-10 4-18 12-24l70-70c20-20 34-44 40-72 2-10 4-20 4-30v-64c-22 10-48 18-74 24-24 4-48 8-74 8-66 2-132-10-184-38-6-4-10-10-10-18v-296c-10 2-20 6-28 12l-8 6c-14 10-24 26-24 44v322c0 38 16 76 44 102zM500 602c6 28 24 52 48 64l28 12c12 6 24 8 36 8 16 0 30-2 44-10 24-14 40-40 42-68l2-26c2-2 4-6 8-6 4-2 8-2 12-2 0 0 0 0 2 0s6 0 6 4l12 22c12 26 36 42 64 46 4 2 10 2 14 2 22 0 46-10 62-28l20-20c20-22 28-50 22-78s-24-50-50-62l-24-10c-4-2-6-4-4-8 0-2 0-4 0-6s0-4 0-6c2-4 4-8 8-8l24-4c28-4 52-22 66-46 12-26 12-56-2-80l-14-26c-14-26-40-42-68-46-2 0-6 0-8 0-26 0-50 10-66 30l-16 20c-2 0-4 2-6 2s-4 0-4-2c-4 0-8-2-12-4-2-2-4-6-4-8l4-26c4-28-4-56-26-76-16-16-38-24-60-24-4 0-10 0-16 2l-28 4c-28 6-52 24-64 50-2 8-6 16-6 24v24c2 12 6 22 12 32l12 22c2 4 2 8-2 10-2 2-4 6-8 8 0 2-4 4-6 4 0 0-2 0-2-2l-6-2v152c0 12-2 24-4 36 2 0-2 16-2 16-8 30-22 58-40 82 0 2 0 6 0 8zM580 390h50c0-6 2-10 4-14l-34-34c-6-6-6-16 0-20 4-4 8-4 10-4 4 0 8 0 10 4l36 34c4-2 8-4 12-6v-48c0-8 8-14 16-14s14 6 14 14v48c4 0 10 2 14 4l34-32c2-4 6-4 10-4s6 0 10 4 6 14 0 20l-34 34c2 4 6 8 6 14h48c8 0 14 6 14 14s-6 14-14 14h-48c0 6-2 10-6 14l34 34c6 6 6 14 0 20s-14 6-20 0l-34-32c-4 2-10 4-14 4v48c0 8-6 14-14 14s-16-6-16-14v-48c-4 0-8-2-14-6l-34 34c-4 6-14 6-20 0s-6-14 0-20l34-34c-2-4-4-8-4-14h-50c-8 0-14-6-14-14s6-14 14-14z" />
<glyph unicode="&#x31;" glyph-name="54-banera" d="M48 520c-12-140 44-272 152-336l-22-48c-14-30 0-66 30-80 8-4 16-6 24-6 24 0 46 12 56 34l28 60c12 0 26-2 40-2 110 0 248 0 396 0l28-58c10-22 32-34 54-34 10 0 18 2 26 6 30 14 44 50 30 80l-12 24c104 66 98 288 98 288-692 0-928 72-928 72zM976 582c-6 0-12 0-18 0 2 22 4 50 2 80-4 92-32 152-82 174-26 12-80 24-144-34-32-28-54-60-54-60-12-18-8-42 10-54s42-8 54 10c18 28 68 82 100 68 38-18 44-112 36-184-600 6-816 70-818 70-24 8-50-6-56-30-8-24 4-48 28-56 10-2 250-74 942-74 24 0 46 20 46 44 0 26-22 46-46 46z" />
<glyph unicode="&#x32;" glyph-name="55-canal-plus" d="M682 174v204h-204v140h204v202h136v-202h206v-142h-206v-202zM508 724l-24-158c0 0-108 100-240 28 0 0-116-72-70-214 0 0 18-84 168-90 0 0 78 4 114 46l-16-160c0 0-326-142-430 176 0 0-60 212 122 340 0 0 154 110 376 32z" />
<glyph unicode="&#x33;" glyph-name="56-cafetera" d="M894 668c46 28 76 78 76 134 0 88-72 158-158 158h-646c-88 0-158-70-158-158 0-86 70-158 158-158h112v-168h94v168h278v-552h-582c-24 0-42-18-42-40v-76c0-22 18-40 42-40h902c22 0 40 18 40 40 0 4-116 692-116 692zM852 144c-20-20-52-20-70 0-20 20-20 50 0 70 18 20 50 20 70 0s20-50 0-70zM480 424h-318c-10 0-16-8-18-18 0 0 0-6 0-20-10 4-22 6-34 6-52 0-96-42-96-96s44-96 96-96c22 0 42 6 58 18 16-38 44-70 90-70h126c56 0 86 48 98 96 14 48 18 102 18 134 0 18-2 28-2 28 0 10-8 18-18 18zM110 260c-20 0-36 16-36 36s16 36 36 36c20 0 36-16 36-36s-16-36-36-36z" />
<glyph unicode="&#x34;" glyph-name="57-secador" d="M440 862l338-52v-364l-224-74 52-302-176-72-248 346 232 148M1024 770h-172v-104h172zM1024 598h-172v-104h172zM578 612c0-160-128-290-288-290s-290 130-290 290c0 158 130 288 290 288s288-130 288-288zM396 630c0 60-48 108-110 108-60 0-108-48-108-108 0-62 48-110 108-110 62 0 110 48 110 110z" />
<glyph unicode="&#x35;" glyph-name="58-minibar" d="M234 662c-12 10-14 20-14 20v40h-40v-40c0 0-2-10-14-20 0 0-24-14-24-46v-144h116v144c0 32-24 46-24 46zM156 618c0 0 0 0 0 2 0 22 12 32 22 36 4 2 6 0 8-2 0-2 0-6-4-6 0-2-16-10-16-26 0-4 0-6-4-6-2-2-4 0-6 2zM220 786c-2 4-4 8-8 8h-24c-4 0-8-4-8-10v-42h40zM430 662c-12 10-14 20-14 20v40h-38v-40c0 0-2-10-14-20 0 0-26-14-26-46v-144h118v144c0 32-26 46-26 46zM354 618c0 0 0 0 0 2-2 22 12 32 22 36 2 2 6 0 6-2 2-2 0-6-2-6-2-2-18-10-16-26 0-4-2-6-4-6-2-2-6 0-6 2zM416 786c0 4-4 8-8 8h-22c-4 0-8-4-8-10v-42h38zM628 662c-12 10-14 20-14 20v40h-40v-40c0 0-2-10-14-20 0 0-24-14-24-46v-144h116v144c0 32-24 46-24 46zM550 618c0 0 0 0 0 2 0 22 12 32 22 36 4 2 6 0 8-2 0-2 0-6-4-6 0-2-16-10-16-26 0-4 0-6-4-6-2-2-4 0-6 2zM614 786c-2 4-4 8-8 8h-24c-4 0-8-4-8-10v-42h40zM676 388h-542c-8 0-16 8-16 16 0 10 8 16 16 16h542c8 0 14-6 14-16 0-8-6-16-14-16zM990 826h-82v42c0 50-42 92-92 92h-94v-1024h94c50 0 92 42 92 92v496h82c12 0 20 10 20 20v262c0 10-8 20-20 20zM970 574c0-6-4-8-8-8h-54v218h54c4 0 8-2 8-8zM130-12c-36 0-68 30-68 68v732c0 36 32 68 68 68h528v48h-528c-64 0-116-52-116-116v-732c0-64 52-118 116-118h528v50zM336 318c-4 0-6-4-6-6v-2c0-2 2-4 6-4h108c4 0 6 2 6 4v2c0 2-2 6-6 6zM354 178c20 42 68 68 108 84l-18 30h-108l-18-32c0 0-2-2-2-8v-126c12 10 26 26 38 52zM396 162v2c10 24 46 40 68 50v14c-32-14-68-34-82-64-20-42-44-66-66-76v-10c0 0 2-2 4-2 58 22 76 86 76 86zM404 160c0-6-20-66-76-90 12-6 28-12 52-12 4 0 6 0 8 0s4 0 8 0c52 0 66 24 66 24l2 4v118c-22-10-50-26-60-44zM138 318c-4 0-6-4-6-6v-2c0-2 2-4 6-4h108c4 0 6 2 6 4v2c0 2-2 6-6 6zM156 178c20 42 68 68 108 84l-18 30h-108l-18-32c0 0-2-2-2-8v-126c14 10 26 26 38 52zM198 162v2c10 24 46 40 68 50v14c-32-14-66-34-80-64-20-42-46-66-68-76v-10c2 0 2-2 4-2 58 22 76 86 76 86zM208 160c-2-6-22-66-78-90 12-6 28-12 54-12 2 0 4 0 6 0s4 0 8 0c52 0 66 24 68 24v122c-22-10-50-26-58-44zM534 318c-4 0-6-4-6-6v-2c0-2 2-4 6-4h108c4 0 6 2 6 4v2c0 2-2 6-6 6zM552 178c20 42 68 68 108 84l-18 30h-108l-18-32c0 0-2-2-2-8v-126c12 10 26 26 38 52zM594 162v2c10 24 46 40 68 50v14c-32-14-68-34-82-64-20-42-44-66-66-76v-10c0 0 2-2 4-2 58 22 76 86 76 86zM602 160c0-6-20-66-76-90 10-6 28-12 52-12 2 0 6 0 8 0s4 0 6 0c52 0 68 24 68 24l2 4v118c-22-10-52-26-60-44z" />
<glyph unicode="&#x36;" glyph-name="59-telef-bano" d="M724 954c-164 0-296-76-296-166 0-42 28-48 72-44 12 32 32 58 58 80 42 38 102 62 166 62s122-24 166-62c24-22 44-48 56-80 46-4 72 2 72 44 0 90-132 166-294 166zM724 862c-120 0-216-84-216-188 0-102 96-110 216-110 118 0 214 8 214 110 0 104-96 188-214 188zM724 658c-52 0-96 36-96 78 0 44 44 80 96 80s94-36 94-80c0-42-42-78-94-78zM2 454c-14-154 46-296 164-366l-24-52c-14-32 0-72 32-88 10-4 18-6 28-6 24 0 48 14 60 38l30 66c14-2 28-2 44-2 120 0 270 0 430 0l28-64c12-24 36-38 60-38 10 0 18 2 28 6 32 16 46 56 32 88l-12 26c112 72 106 312 106 312-752 0-1006 80-1006 80z" />
<glyph unicode="&#x37;" glyph-name="60-caja-fuerte" d="M964 816h-906c-32 0-58-26-58-58v-560c0-30 26-56 58-56h906c32 0 58 26 58 56v560c0 32-26 58-58 58M940 622c0-14-12-32-26-32h-6v-234h6c14 0 26-6 26-18v-4c0-12-12-28-26-28h-6v-22c0-38-26-70-66-70h-696c-38 0-74 32-74 70v390c0 40 36 70 74 70h696c40 0 66-30 66-70v-32h6c14 0 26-4 26-18zM346 428c-14 0-24 2-34 10l-50-50c22-20 52-30 84-30 30 0 58 10 82 28l-50 50c-10-6-22-8-32-8M284 488c0 12 4 22 10 32l-50 50c-18-24-28-52-28-82 0-32 10-62 30-84l50 50c-8 10-12 22-12 34M346 548c12 0 24-4 32-10l50 50c-22 18-52 30-82 30-34 0-62-12-86-32l50-50c10 8 22 12 36 12M446 570l-50-50c6-8 10-20 10-32 0-14-4-26-12-36l50-50c20 24 32 54 32 86s-12 60-30 82M878 642v32c0 24-12 40-36 40h-696c-22 0-44-16-44-40v-390c0-24 22-50 44-50h696c24 0 36 26 36 50v22c-12 0-30 16-30 28v4c0 12 18 18 30 18v234c-12 0-30 18-30 32v2c0 14 18 18 30 18M484 364l-16-18-20 20c-28-22-64-38-102-38-40 0-76 16-104 40l-20-22-18 18 22 20c-24 28-40 64-40 104 0 38 14 74 38 102l-20 20 18 16 18-20c28 24 66 40 106 40 38 0 74-14 102-38l20 18 16-16-20-20c26-28 40-64 40-102 0-40-16-78-40-106zM904 132h-52c-20 0-34-12-34-26s14-26 34-26h52c20 0 36 12 36 26s-16 26-36 26M180 132h-52c-20 0-36-12-36-26s16-26 36-26h52c20 0 36 12 36 26s-16 26-36 26" />
<glyph unicode="&#x38;" glyph-name="61-fumadores" d="M170 218h144c0 42 0 86 0 96 0 4 2 8 2 12-12 8-24 16-40 22-60 26-124 10-142-32-12-32 2-70 36-98zM108 404c0 20-16 38-38 38s-40-16-40-38v-466h78v90h582v-90h78v176h-660zM692 348c0 0-292 0-308 0-26 0-36-18-36-34 0-4 0-12 0-24-2-22-2-50-2-78 0-34 0-64 0-64h424v122c0 44-34 78-78 78zM358 572v-108h630v108zM556 558h380v-80h-380zM950 760c-6 12-16 26-22 40-8 20-14 44-14 66 0 28 8 56 28 80 2 4 6 6 12 6s12-6 12-14c0-2 0-6-2-8-16-18-22-42-22-64 0-18 4-38 12-54 4-12 12-24 20-38s16-28 18-46c2-8 4-16 4-24 0-30-12-58-28-84-2-4-6-6-12-6-8 0-14 6-14 14 0 2 2 4 2 6 14 22 24 46 24 70 0 6 0 12-2 18-2 14-8 26-16 38zM876 952c2 4 6 6 10 6 8 0 14-6 14-14 0-4 0-6-2-8-16-20-22-42-22-66 0-18 4-36 10-52 6-14 14-26 22-40 4-8 10-16 12-26 2-2 2-4 2-6 0-6-6-14-14-14-6 0-10 4-12 10-4 8-8 16-12 24-6 12-16 26-22 40-10 20-14 42-14 64 0 30 8 58 28 82z" />
<glyph unicode="&#x39;" glyph-name="62-telef" d="M512 778c-276 0-502-128-502-284 0-70 46-82 122-72 20 52 54 100 98 138 72 62 172 102 282 102s210-40 282-102c44-38 78-86 98-138 76-10 122 2 122 72 0 156-224 284-502 284zM512 622c-202 0-366-142-366-318 0-178 164-188 366-188s366 10 366 188c0 176-164 318-366 318zM512 274c-88 0-162 60-162 134s74 134 162 134c90 0 162-60 162-134s-72-134-162-134z" />
<glyph unicode="&#x3a;" glyph-name="78-google" d="M512-64c-282 0-512 230-512 512s230 512 512 512c282 0 512-230 512-512s-230-512-512-512zM512 914c-258 0-466-208-466-466s208-466 466-466c258 0 466 208 466 466s-208 466-466 466zM690 490v74h-76v46h76v74h44v-74h76v-46h-76v-74zM730 680v-74h76v-38h-76v-74h-36v74h-76v38h76v74h36M738 688h-52v-74h-76v-54h76v-74h52v74h76v54h-76zM430 134c-104 0-178 44-178 104 0 62 66 130 164 130h20c-10 10-18 22-18 40 0 8 2 18 6 26-2 0-6 0-10 0-74 0-126 52-126 126 0 70 72 132 156 132h170l-42-44-34-2c24-18 38-50 38-88 0-34-16-64-48-90-28-20-32-28-32-44 0-14 28-34 42-46l4-2c56-42 64-68 64-116 0-62-66-126-176-126zM436 342c-62 0-116-40-116-86 0-50 48-88 110-88 78 0 118 30 118 86 0 4 0 10-2 16-4 22-26 36-54 56l-14 10c-12 4-26 6-40 6l-2 4zM418 658c-18 0-32-6-42-20-16-18-22-46-18-76 6-52 44-94 88-96 18 0 32 6 42 18 14 16 20 40 16 72-8 56-44 100-86 102v4zM606 688l-36-38h-44c30-18 46-52 46-92 0-36-20-64-48-86-26-22-32-30-32-48 0-16 32-40 48-50 52-40 64-64 64-114 0-62-68-122-174-122-94 0-174 38-174 100s66 126 160 126c10 0 20 0 30 0-14 14-24 24-24 44 0 10 4 22 8 30-4 0-10 0-16 0-76 0-122 54-122 122s70 128 152 128c42 0 162 0 162 0M448 462c42 0 66 38 60 94-8 58-46 104-90 106-44 0-72-44-64-100 8-58 48-98 92-100 2 0 2 0 2 0M430 164c90 0 122 40 122 90 0 6 0 12-2 16-6 28-36 44-70 68-14 4-28 8-42 8-2 0-2 0-2 0-64 0-120-42-120-90 0-50 48-92 114-92M624 696h-180c-86 0-160-64-160-136 0-76 54-130 130-130 2 0 4 0 4 0-2-8-4-16-4-22 0-16 6-26 14-36-4 0-8 0-12 0-100 0-168-70-168-134 0-62 76-108 182-108 112 0 180 66 180 130 0 54-14 80-66 120l-2 2c-12 8-42 30-42 42 0 14 2 20 30 42 32 26 50 58 50 92s-12 64-30 84h22l40 40zM448 470h-2c-42 2-78 42-84 92-4 30 2 58 16 74 10 12 24 18 40 18 40-2 74-44 82-100 4-28-2-52-14-68-10-10-22-16-38-16zM430 172c-60 0-106 38-106 84 0 44 52 82 112 82h2c12 0 26-2 38-6 4-4 10-6 14-10 28-18 48-32 54-54 0-4 2-10 2-14-2-54-40-82-116-82z" />
<glyph unicode="&#x3b;" glyph-name="79-instagram" d="M512-64c-282 0-512 230-512 512s230 512 512 512c282 0 512-230 512-512s-230-512-512-512zM512 914c-258 0-466-208-466-466s208-466 466-466c258 0 466 208 466 466s-208 466-466 466zM306 724h412c38 0 70-28 70-70v-412c0-42-32-70-70-70h-412c-38 0-70 28-70 70v412c0 42 32 70 70 70zM638 662c-14 0-24-10-24-24v-60c0-14 10-24 24-24h62c14 0 26 10 26 24v60c0 14-12 24-26 24zM726 490h-48c4-14 6-30 6-46 0-92-76-168-172-168-94 0-172 76-172 168 0 16 4 32 8 46h-50v-232c0-12 10-22 22-22h384c12 0 22 10 22 22zM512 556c-60 0-110-48-110-106 0-60 50-108 110-108 62 0 112 48 112 108 0 58-50 106-112 106z" />
<glyph unicode="&#x3c;" glyph-name="80-pinterest" d="M512-64c-282 0-512 230-512 512s230 512 512 512c282 0 512-230 512-512s-230-512-512-512zM512 914c-258 0-466-208-466-466s208-466 466-466c258 0 466 208 466 466s-208 466-466 466zM742 580c-16 120-134 180-260 166-100-12-198-92-202-208-4-70 16-122 84-136 28 50-10 62-16 98-24 152 176 256 280 150 72-74 24-300-92-276-112 22 54 202-34 238-74 28-112-88-78-146-20-100-62-192-46-318 58 42 76 120 92 204 30-18 44-36 82-38 134-12 208 134 190 266z" />
<glyph unicode="&#x3d;" glyph-name="81-youtube" d="M512-64c-282 0-512 230-512 512s230 512 512 512c282 0 512-230 512-512s-230-512-512-512zM512 914c-258 0-466-208-466-466s208-466 466-466c258 0 466 208 466 466s-208 466-466 466zM686 470h-348c-56 0-100-44-100-100v-80c0-56 44-100 100-100h348c56 0 100 44 100 100v80c0 56-44 100-100 100zM412 408h-34v-160h-30v160h-32v26h96zM502 248h-28v14c-4-6-10-10-16-12-4-4-10-6-16-6s-10 4-14 8c-2 4-4 10-4 18v116h28v-106c0-4 0-6 0-8 2-2 4-2 6-2s6 2 8 2c4 2 6 6 8 8v106h28zM604 276c0-10-4-18-8-22-4-6-10-8-18-8-6 0-10 0-14 2-6 2-10 6-12 10v-10h-28v186h28v-60c4 4 8 8 12 10s8 4 12 4c8 0 16-4 20-10s8-14 8-26zM700 314h-54v-28c0-6 2-12 2-14 2-4 6-4 10-4s8 0 10 4c2 2 2 6 2 14v8h30v-8c0-14-4-24-12-32-6-8-16-10-30-10-12 0-22 4-30 10-6 8-10 18-10 32v62c0 12 4 22 12 30s18 12 30 12c12 0 22-4 28-12 8-6 12-16 12-30zM658 364c-4 0-8 0-10-2 0-4-2-8-2-14v-14h24v14c0 6 0 10-2 14-2 2-6 2-10 2zM562 366c0 0-2-2-4-2s-4-2-6-4v-86c2-2 4-4 6-6 2 0 4-2 6-2 4 0 6 2 8 4s2 6 2 10v72c0 4 0 8-2 10s-6 4-10 4zM384 518h34v86l42 122h-36l-22-84h-2l-22 84h-36l42-126zM508 514c14 0 24 4 32 12s12 18 12 30v80c0 10-4 20-12 28s-18 12-32 12c-14 0-24-4-34-12-8-6-12-16-12-28v-78c0-14 4-24 12-32s20-12 34-12zM494 638c0 2 2 6 4 8s6 2 10 2c4 0 6 0 10-2 2-2 4-6 4-8v-84c0-4-2-8-4-10-4-2-6-4-10-4s-8 2-10 4c-2 2-4 6-4 10zM600 516c6 0 12 2 18 6 6 2 12 8 18 14v-18h32v154h-32v-116c-2-4-6-6-10-8-4-4-6-4-8-4-4 0-6 0-6 2-2 2-2 4-2 8v118h-32v-128c0-10 2-16 6-20 4-6 8-8 16-8z" />
<glyph unicode="&#x3e;" glyph-name="82-tripadvisor" d="M512-64c-282 0-512 230-512 512s230 512 512 512c282 0 512-230 512-512s-230-512-512-512zM512 914c-258 0-466-208-466-466s208-466 466-466c258 0 466 208 466 466s-208 466-466 466zM596 660c20-2 40-8 60-14 34-10 68-26 98-46 2 0 6-2 8-2 36 0 72 0 110 0 2 0 4 0 8 0 0 0 0 0 0-2-2-2-4-4-6-6-12-20-22-40-28-62-2-2-2-4 0-6 32-46 44-98 30-152-12-48-40-86-82-112-30-20-62-28-98-28-16 0-30 2-44 4-36 10-66 28-92 54-2 4-6 8-10 12-12-20-26-40-38-60-14 20-26 40-40 58-2 0-2 0-2 0-30-36-68-58-114-66-26-4-52-2-76 4-36 10-66 30-90 56-24 28-40 60-44 94-8 34 0 66 2 74 6 22 16 44 30 62 0 2 0 4 0 6-6 20-14 38-26 56-2 4-6 8-10 12 0 0 0 2 0 2 2 0 2 0 2 0 38 0 76 0 112 0 2 0 4 0 4 2 28 16 54 30 84 40 22 6 42 12 64 18 22 4 44 6 64 8 54 4 96-2 124-6zM548 414c0-80 66-148 148-148 82 2 148 66 148 148 0 86-70 150-150 148-82-2-144-68-146-148zM328 562c-80 0-148-66-148-150 2-78 66-146 150-144 80 0 146 66 146 146 0 82-66 148-148 148zM334 600c46-2 86-18 118-48 34-30 54-68 60-112 8 44 26 80 58 110 34 30 72 46 116 50-52 22-108 32-164 34-64 2-128-8-188-34zM696 508c50 0 92-40 92-92 0-50-40-88-88-90-54-2-96 40-96 90 0 52 44 92 92 92zM756 416c0 34-28 60-60 60s-60-26-60-60c0-32 26-60 60-60 32 0 60 28 60 60zM326 508c50 0 92-40 90-92 0-50-40-88-86-90-54-4-96 40-96 90 0 52 44 92 92 92zM386 416c0 34-28 60-62 60-32 0-58-28-58-60s26-60 60-60c32 0 60 28 60 60zM696 446c16 0 30-12 30-30 0-16-14-30-30-30s-30 14-30 30c0 18 12 30 30 30zM326 448c16 0 30-14 30-32 0-16-14-30-30-30-18 0-32 14-32 30 0 18 14 32 32 32z" />
<glyph unicode="&#x3f;" glyph-name="83-twitter" d="M683.201 714.685h90.675l-198.112-226.425 233.054-308.112h-182.484l-142.928 186.869-163.536-186.869h-90.732l211.896 242.19-223.574 292.347h187.109l129.189-170.806 149.442 170.806zM651.373 234.427h50.249l-324.336 428.83h-53.924l328.011-428.83zM512.006-64c-282.33 0-512.006 229.676-512.006 511.994s229.676 512.006 512.006 512.006 512.006-229.676 512.006-512.006-229.676-512.006-512.006-512.006zM512.006 914.147c-257.039 0-466.153-209.114-466.153-466.153s209.114-466.153 466.153-466.153 466.153 209.114 466.153 466.153-209.114 466.153-466.153 466.153z" />
<glyph unicode="&#x40;" glyph-name="84-candado" d="M910 474c-14 14-30 20-48 20h-24v140c0 90-32 166-96 230s-140 96-230 96c-90 0-166-32-230-96s-96-140-96-230v-140h-24c-18 0-34-6-48-20s-20-30-20-50v-418c0-20 6-36 20-50s30-20 48-20h700c18 0 34 6 48 20s20 30 20 50v418c0 20-6 36-20 50zM698 494h-372v140c0 52 18 96 54 132s80 54 132 54c52 0 96-18 132-54s54-80 54-132z" />
<glyph unicode="&#x41;" glyph-name="27-periodico" d="M954 714l-228 228c-14 14-38 14-52 0l-472-472c-14-14-14-38 0-50l228-228c92-100-40-250-150-152l-178 178c-32 34 18 84 50 50l178-178c34-34 84 18 50 52l-178 178c-100 98-250-52-150-152l178-178c70-70 182-68 250 0l474 472c66 68 70 180 0 252zM902 514l-370-372c-2 0-2 0-2 0-4 36-20 72-50 100l-202 202 422 422 202-202c44-44 40-112 0-150zM550 282l-156 156 138 138 156-156zM706 750l34-34-140-140-34 34zM802 656l-140-142-34 36 140 140zM722 454l-34 34 142 140 34-34z" />
<glyph unicode="&#x42;" glyph-name="28-animales" d="M994 670l-218 112c-2 0-2 0-4 0l-26 72-2 6c-6 16-22 26-40 24-18-4-32-22-28-42l16-98-86-128 46-30 34-22 10-6 28-20 42-28 4-2 46-30 20 46h116c22 0 40 14 50 34l18 44c10 26 0 56-26 68zM108 16l28 174 146 102c18-10 42-22 72-34 84-32 186-50 304-54v-178c0-30 24-54 54-54s54 24 54 54v346l22 48-22 16-22 14-46 32-36 24-46 30-44 28h-398l-78 126-4 6c-8 14-28 20-44 14-18-8-26-28-20-46l70-176c0-2 0-6 2-8 6-16 12-30 16-42 26-70-60-150-62-150-8-10-14-20-16-32l-36-222c-6-30 14-56 44-62 2 0 6 0 8 0 26 0 50 18 54 44zM540 600c10 0 18 4 24 12 8 14 6 30-8 40l-408 270c0 0-2 2-4 2v-68l380-252c6-4 10-4 16-4z" />
<glyph unicode="&#x43;" glyph-name="29-escritorio" d="M992 540h-960c-18 0-32-14-32-30v-42c0-16 14-30 32-30h220v-6c0-18 14-32 32-32h456c18 0 32 14 32 32v6h220c18 0 32 14 32 30v42c0 16-14 30-32 30M180 350c0 6-2 12-2 18 0 4 0 6 0 10-2 2-2 6-2 8-2 4-2 10-4 14h-116c4-10 8-24 14-42 0-2 2-4 2-6 2-2 2-6 2-8 2-4 2-10 4-14 2-10 4-20 8-32 2-12 2-24 4-36s4-26 4-38l2-10v-8c0-2 0 2 0 2v-2c0-6 0-12 0-20 0-12 0-20-2-32-2-24-6-46-10-66-4-18-8-34-12-44-2-6-2-10-4-12 0-4 0-4 0-4l-2-4c-4-14 2-30 18-36 14-8 34-2 40 14 0 0 2 2 4 6 0 2 2 8 6 12 4 12 10 28 18 48 6 20 14 44 20 70 4 14 6 30 10 44 0 8 0 14 2 20v24c0 14 2 28 2 42s0 28-2 42c0 14-2 28-4 40M796 638c0-28 10-52 24-66h38c14 14 22 38 22 66 0 42-30 76-42 76-10 0-42-34-42-76M976 750l-92 162h-90l-94-162zM928 208v6l2 10c0 12 2 26 4 38s2 24 4 36c4 12 6 22 8 32 2 4 2 10 4 14 0 2 0 6 2 8 0 2 2 4 2 6 6 18 10 32 14 42h-116c-2-4-2-10-4-14 0-2 0-6-2-8 0-4 0-6 0-10 0-6-2-12-2-18-2-12-4-26-4-40-2-14-2-28-2-42s2-28 2-42v-24c2-6 2-12 2-20 4-14 6-30 10-44 6-26 14-50 20-70 8-20 14-36 18-48 4-4 6-10 6-12 2-4 4-6 4-6 6-16 26-22 40-14 16 6 22 22 18 36l-2 4c0 0 0 0 0 4-2 2-2 6-4 12-4 10-8 26-12 44-4 20-8 42-10 66-2 12-2 20-2 32 0 8 0 14 0 20v2c0 0 0-4 0-2z" />
<glyph unicode="&#x44;" glyph-name="30-wifi" d="M318 330c-12-16-36-20-54-8s-22 38-8 54c30 42 68 74 112 96s92 34 144 34c52 0 100-12 144-34s82-54 112-94c14-18 10-42-8-56-18-12-42-8-54 8-22 30-52 56-86 72-32 16-68 26-108 26-38 0-76-10-108-26-34-16-64-42-86-72M512 334c-40 0-76-18-102-44-28-26-44-62-44-102s16-76 44-102c26-26 62-44 102-44s76 18 102 44c26 26 44 62 44 102s-18 76-44 102c-26 26-62 44-102 44M560 236c12-12 18-30 18-48s-6-36-18-48c-12-12-30-18-48-18s-36 6-48 18c-12 12-18 30-18 48s6 36 18 48c12 12 30 18 48 18s36-6 48-18M194 452c38 46 88 84 142 110s114 40 176 40c62 0 122-14 176-40s104-64 142-110c14-16 38-18 56-4 16 12 18 38 4 54-46 56-104 100-170 132-62 30-134 46-208 46s-146-16-208-46c-66-32-124-76-170-132-14-16-12-42 4-54 18-14 42-12 56 4M70 574c-14-16-38-18-54-4-18 14-18 40-4 56 62 70 138 128 226 168 84 38 176 60 274 60s190-22 274-60c88-40 164-98 226-168 14-16 14-42-4-56-16-14-40-12-54 4-54 62-122 114-200 148-74 34-156 52-242 52s-168-18-242-52c-78-34-144-86-200-148" />
<glyph unicode="&#x45;" glyph-name="175-escuela" d="M256 960h512v-256h-512zM36 630h440v-182h-440zM548 630h440v-182h-440zM36 374h440v-182h-440zM548 374h440v-182h-440zM36 118h440v-182h-440zM548 118h440v-182h-440z" />
<glyph unicode="&#x46;" glyph-name="32-maleta" d="M114 144h796c20 0 36 16 36 36s-16 36-36 36h-38v322c0 78-38 154-108 208-56 44-124 72-200 80 16 14 26 34 26 56 0 44-36 78-78 78s-78-34-78-78c0-22 10-42 26-56-76-8-144-36-200-80-70-54-108-130-108-208v-322h-38c-20 0-36-16-36-36s16-36 36-36zM224 538c0 120 128 220 288 220s288-100 288-220v-322h-576zM700 22c0-46 40-86 86-86 48 0 88 40 88 86 0 48-40 88-88 88-46 0-86-40-86-88zM238-64c46 0 86 40 86 86 0 48-40 88-86 88-48 0-88-40-88-88 0-46 40-86 88-86zM690 530h-86v52c0 22-18 40-42 40h-100c-24 0-42-18-42-40v-52h-86c-12 0-20-10-20-20v-234c0-12 8-20 20-20h356c12 0 20 8 20 20v234c0 10-8 20-20 20zM554 530h-84v42h84z" />
<glyph unicode="&#x47;" glyph-name="33-piano" d="M598 556c-88 162-72 390-324 392-250 0-274-176-274-408v-592l166-4 858 4v276c0 298-328 154-426 332zM974-2h-924v126h50v-100h24v100h26v-100h24v100h100v-100h26v100h24v-100h26v100h24v-100h26v100h74v-100h26v100h24v-100h26v100h100v-100h24v100h26v-100h24v100h26v-100h24v100h74v-100h26v100h24v-100h26v100h50z" />
<glyph unicode="&#x48;" glyph-name="34-spa" d="M808 120c24 2 48 16 62 38 2 0 2 2 2 4 24 38 52 100 64 174 6 44 4 92-8 140-10 40-24 84-52 120 0 2-2 4-4 6 12 18 20 40 22 62 6 88-16 164-64 216-48 50-116 76-202 76-8 0-18 0-26 0-116-8-224-50-314-126-78-66-140-156-174-252-44-128-36-252 18-344 14-26 34-50 56-70 2-2 4-2 6-4 16-12 34-20 54-20 52-118 160-200 284-200 118 0 222 72 276 180zM182 518c48 172 202 342 424 354 8 2 16 2 22 2 178 0 188-140 184-204 0-6-2-12-6-18s-10-10-18-14c-4 0-8-2-12-2-12-2-24-4-36-6-4-2-6-2-8-2-22-4-42-8-62-14-28-6-56-14-80-22-80-26-144-60-192-98-84-70-122-158-128-256-2-10-8-16-16-16-4 0-8 0-10 4-10 8-18 16-26 26-20 28-34 60-42 94-12 54-10 114 6 172zM856 458c16-62 8-122-8-170-12-38-28-70-40-90-2-2-4-4-6-4-4 0-8 4-8 8 6 216-148 268-272 274 56 30 132 54 232 72 12 2 24 4 36 6 4 0 10 2 14 2 2 2 6 2 8 2 14-16 26-40 34-66 4-10 6-22 10-34zM416 198c-28 0-52 16-64 38-6 10-8 22-8 36 0 24 12 46 30 58 12 8 26 14 42 14 40 0 74-32 74-72 0-42-34-74-74-74zM548 40c-28 0-50 20-50 36h98c0-16-22-36-48-36zM622 86h-150c-4 0-6 4-2 8 36 34 118 34 154 0 4-4 2-8-2-8zM648 198c-40 0-72 32-72 74 0 40 32 72 72 72 14 0 28-4 40-12 20-12 32-36 32-60 0-8 0-16-2-22-10-30-38-52-70-52zM678 284c-2-2-4-2-6-4-2 2-4 4-6 4-2 2-6 2-8 2-8 0-16 0-20-2-6-4-12-6-16-12-4-4-8-8-10-14l16 4c6 0 10 2 14 2 6 0 8 0 12 0s8-2 12-2l4-4 4 2c0 0 0 0 2 0v2c2 0 2 0 4 0 0 2 2 4 4 4 2 4 4 6 4 10 4 6 2 14 0 18-4-4-8-8-10-10zM426 284c-6 2-14 2-20 2-4 0-6 0-10-2-2 0-4-2-6-4-2 2-4 2-6 4s-6 6-10 10c-2-4-4-12 0-18 0-4 2-6 4-10 2 0 4-2 4-2 2-2 2-2 4-2v-2c2 0 2 0 2 0l4-2 4 4c4 0 8 2 12 2s8 0 12 0c4 0 8-2 14-2l16-4c-2 6-6 10-10 14-4 6-8 8-14 12z" />
<glyph unicode="&#x49;" glyph-name="35-maiz" d="M690 518c-8-8-18-18-28-30-2 0-6 0-10 0 0 4 0 8 0 14-2 20-2 42-2 64 12 0 24 0 38 0 0-16 2-32 2-48zM686 588c-12 0-24 0-38 0 0 26-2 50-2 76 10 0 20 0 30 0 4-24 8-50 10-76zM672 688c-10 0-18 0-28 0-2 24-4 50-6 76 6 0 10 0 16 0 6-24 12-50 18-76zM646 786c-2 0-6 0-10 0-2 14-2 28-4 42 6-14 10-28 14-42zM622 434c-10-14-20-30-30-46-16 0-34 0-50-2 0 26 0 52 0 78 26 0 52 0 80 2 0-12 0-22 0-32zM580 364c-12-22-24-44-32-70-2-2-2-4-2-6-2 0-2 0-2 0 0 26 0 50-2 76 14 0 26 0 38 0zM622 500c0-4 0-8 0-12-28 0-54-2-80-2 0 6 0 10 0 14-2 22-2 42-2 64 28 0 54 0 80 0 0-20 2-42 2-64zM622 590c-26-2-52-4-80-6-2 26-2 52-4 78 24 0 50 2 76 4 2-26 6-50 8-76zM614 686c-24 0-50 0-74 0 0 26-2 52-2 78 24 0 48 0 70 0 2-26 4-52 6-78zM606 786c-22 0-44 0-68 0 0 26 0 52 0 76 20 2 40 2 60 2 4-26 6-52 8-78zM594 894c0-2 0-6 2-8-20 0-40 0-58 0 0 16 0 34 0 52 20-6 38-20 56-44zM512 386c0 0 0 0-2 0-8 28-20 54-32 78 12 0 22 0 34 0 0-26 0-52 0-78zM512 500c0-4 0-10 0-14-16 0-30 0-44 0-10 18-20 36-30 52 0 8 0 16 0 24 24 2 48 2 74 2 0-22 0-42 0-64zM458 900c14 20 32 32 50 38 0-18 0-36 0-54-18 0-34 0-52 0 0 6 0 10 2 16zM454 862c18 0 36 0 54 0 0-26 0-50 2-76-22 0-42-2-64-2 2 26 4 52 8 78zM446 762c20 0 42 0 64 0 0-24 0-50 0-76-24 0-46 0-70-2 2 26 4 52 6 78zM440 662c24 0 46 2 70 2 0-26 0-52 0-78-24 0-48 0-72 0 0 24 0 50 2 76zM422 838c-2-18-4-36-4-54-6 0-12 0-16 0 6 20 12 38 20 54zM396 762c6 0 12 0 20 0-2-26-4-52-4-78-12 0-22 0-34 0 6 28 10 54 18 78zM376 662c10 0 22 0 34 0 0-26-2-52-2-78 0 0-2 0-2 0-12 18-24 34-34 46 0 12 2 22 4 32zM730 212c-60-160-146-278-194-266-4-4-8-8-14-10-52-14-144 138-204 340-60 200-16 390-16 390s144-136 204-338c12-44 24-86 32-124 6 22 14 44 22 68 62 162 196 264 196 264s36-162-26-324zM10 948l88-86M8 860l88 86" />
<glyph unicode="&#x4a;" glyph-name="36-doble-habitacion" d="M190 302h188c0 54 0 112 0 124 0 6 0 10 0 14-14 12-30 22-50 30-78 34-160 14-182-42-18-40 2-90 44-126zM112 542c0 28-24 50-50 50-28 0-52-22-52-50v-600h102v116h750v-116h102v226h-852zM864 470c0 0-378 0-398 0-32 0-48-22-48-44 0-4 0-16 0-32 0-26 0-64 0-98 0-46 0-84 0-84h546v158c0 56-44 100-100 100zM566 788h106c0 32 0 64 0 72 0 2 0 6 2 8-10 6-18 12-30 18-44 18-92 6-104-26-10-22 0-50 26-72zM520 926c0 16-12 28-28 28s-30-12-30-28v-344h58v66h430v-66h58v130h-488zM952 886c0 0-216 0-228 0-20 0-28-14-28-26 0-4 0-10 0-18 0-16 0-38 0-58 0-26 0-48 0-48h314v92c0 32-26 58-58 58z" />
<glyph unicode="&#x4b;" glyph-name="37-wifi" d="M1024 46c0-34-28-64-64-64h-896c-36 0-64 30-64 64 0 36 28 64 64 64h896c36 0 64-28 64-64zM640 46c0 18-14 32-32 32h-192c-18 0-32-14-32-32 0-16 14-32 32-32h192c18 0 32 16 32 32zM798 180h-572c-116 0-212 94-212 212v310c0 116 96 212 212 212h572c116 0 212-96 212-212v-310c0-118-96-212-212-212zM226 832c-72 0-130-58-130-130v-310c0-72 58-132 130-132h572c72 0 130 60 130 132v310c0 72-58 130-130 130zM554 458c24-24 24-62 0-86s-62-24-84 0c-24 24-24 62 0 86 22 24 60 24 84 0zM356 540c-16-14-16-38 0-54s38-16 54-2c56 56 148 56 204 0 14-14 38-14 54 2 8 8 12 18 12 28s-4 20-12 26c-42 42-98 64-156 64s-114-22-156-64zM512 738c-92 2-184-36-250-104-16-14-16-38 0-54s38-16 54-2c54 52 122 82 196 82 72 0 142-30 196-80 14-16 38-16 54 0 8 8 12 18 12 28s-4 18-12 26c-66 66-156 104-250 104z" />
<glyph unicode="&#x4c;" glyph-name="38-social" d="M668 510h-94c0-10 2-54-24-72 0 0 40-228 24-300-8-32-34-108-64-108s-54 78-60 108c-14 74 34 298 34 298-6 4-20 18-24 74h-104c-94 0-182-80-170-180l24-184c18-98 76-176 172-176h260c96 0 154 80 172 178l26 186c12 96-78 176-172 176zM686 748c0-100-78-180-174-180s-174 80-174 180c0 98 78 178 174 178s174-80 174-178zM950 712h-134c-40 0-78-36-72-78v-2c128-4 196-152 196-152 40 0 64 34 72 76l12 80c4 42-34 76-74 76zM884 736c40 0 74 34 74 76 0 44-34 78-74 78-42 0-76-34-76-78 0-42 34-76 76-76zM74 712h134c40 0 78-36 72-78v-2c-128-4-196-152-196-152-40 0-64 34-72 76l-12 80c-4 42 34 76 74 76zM140 736c-40 0-74 34-74 76 0 44 34 78 74 78 42 0 76-34 76-78 0-42-34-76-76-76z" />
<glyph unicode="&#x4d;" glyph-name="39-minicadena" d="M798 88h72v124h-40v618h146v-618h-38v-124h82v-22h-222zM4 88h72v124h-40v618h146v-618h-38v-124h82v-22h-222zM258 806h532v-372h-214v-36h64v-34h108v-266h-48v-30h-42v30h-288v-30h-40v30h-46v266h114v34h60v36h-230v372zM418 190v-36h196v36zM432 150h12v-8h144v8h12v-8h102v76h-372v-76h102zM330 232h72v10h16v-10h196v10h18v-10h70v88h-372zM380 296v-48h270v48zM728 746h-438v-252h438zM108 782c-16 0-30-6-40-16-12-10-18-26-18-42s6-30 18-40c10-10 24-16 40-16s30 6 40 16c10 10 18 24 18 40s-6 32-18 42c-10 10-24 16-40 16zM108 448c-16 0-30-6-40-18-12-10-18-24-18-40s6-30 18-40c10-12 24-18 40-18s30 6 40 18c10 10 18 24 18 40s-6 30-18 40c-10 12-24 18-40 18zM128 410c-6 4-12 8-20 8s-14-4-20-8c-4-6-8-12-8-20s4-14 8-20c6-4 12-8 20-8s14 4 20 8c4 6 8 12 8 20s-4 14-8 20zM108 616c-16 0-30-6-40-16v-2c-12-10-18-24-18-40s6-30 18-40c10-10 24-18 40-18s30 8 40 18c10 10 18 24 18 40s-6 30-18 40v2c-10 10-24 16-40 16zM128 578c-6 4-12 8-20 8s-14-4-20-8c-4-6-8-12-8-20s4-14 8-20c6-4 12-8 20-8s14 4 20 8c4 6 8 12 8 20s-4 14-8 20zM128 744c-6 6-12 8-20 8s-14-2-20-8c-4-4-8-12-8-20 0-6 4-14 8-18 6-6 12-8 20-8s14 2 20 8c4 4 8 12 8 18 0 8-4 16-8 20zM902 782c-16 0-30-6-40-16s-18-26-18-42c0-16 8-30 18-40s24-16 40-16c16 0 30 6 40 16 12 10 18 24 18 40s-6 32-18 42c-10 10-24 16-40 16zM902 448c-16 0-30-6-40-18-10-10-18-24-18-40s8-30 18-40c10-12 24-18 40-18s30 6 40 18c12 10 18 24 18 40s-6 30-18 40c-10 12-24 18-40 18zM922 410c-6 4-12 8-20 8s-14-4-20-8c-4-6-8-12-8-20s4-14 8-20c6-4 12-8 20-8s14 4 20 8c4 6 8 12 8 20s-4 14-8 20zM902 616c-16 0-30-6-40-16v-2c-10-10-18-24-18-40s8-30 18-40c10-10 24-18 40-18s30 8 40 18c12 10 18 24 18 40s-6 30-18 40v2c-10 10-24 16-40 16zM922 578c-6 4-12 8-20 8s-14-4-20-8c-4-6-8-12-8-20s4-14 8-20c6-4 12-8 20-8s14 4 20 8c4 6 8 12 8 20s-4 14-8 20zM922 744c-6 6-12 8-20 8s-14-2-20-8c-4-4-8-12-8-20 0-6 4-14 8-18 6-6 12-8 20-8s14 2 20 8c4 4 8 12 8 18 0 8-4 16-8 20z" />
<glyph unicode="&#x4e;" glyph-name="40-tenis" d="M484 42c-28 30-68 40-106 34 2-34 18-70 44-96s60-42 96-44c6 38-6 78-34 106zM540 238c-6-36 6-76 34-106 30-28 70-40 106-34-2 36-16 70-44 96-26 28-60 42-96 44zM502 60c32-34 46-80 40-124 34 4 68 18 94 44 28 26 42 60 44 94-44-6-90 8-122 42-34 32-48 78-42 122-34-2-68-16-94-44-26-26-42-60-44-94 44 6 90-6 124-40zM84 168c-20-22-20-56 0-78 22-22 56-22 78 0l162 162-78 76zM848 438c130 130 144 328 28 444-114 114-314 102-444-28-90-90-124-214-98-320 0 0 20-98-22-138l-32-34 76-78 34 34c42 40 140 22 140 22 104-26 228 8 318 98z" />
<glyph unicode="&#x4f;" glyph-name="41-plancha" d="M854 242h-854c46 132 154 264 318 360-32 54 122 126 152 68 94 28 500 130 522-26l30-200c24-162-122-98-168-202zM540 600c84-2 220 20 304 42 98 26 110-144-94-168 0 56-200 28-188-22l-174-22c-80-10 54 174 152 170zM0 194h854v-26h-854z" />
<glyph unicode="&#x50;" glyph-name="42-golf" d="M364 788c-42 0-76-32-76-74s34-74 76-74c42 0 76 32 76 74s-34 74-76 74M748 642c-2 16-16 24-16 26l-446 292-40-60c-8-12-4-28 8-34 10-8 24-2 32 10l16 38 372-246-296-52c-22-4-36-24-32-46l64-248-208-312c-12-22-4-50 18-62 20-12 48-4 60 18 0 0 218 326 218 328 0 0 12-46 12-46l-32-260c-4-24 12-48 36-52s48 12 52 38l34 266c2 6 0 22-2 28l-74 294 194 34c20 4 34 24 30 46M828 8c0-20-18-38-40-38s-40 18-40 38c0 22 18 40 40 40s40-18 40-40z" />
<glyph unicode="&#x51;" glyph-name="43-habitacion-vistas" d="M454 234l570 2-202 68v510l202 120h-570v-246M86 434c0 22-18 40-40 40s-40-18-40-40v-476h80v92h596v-92h80v180h-676z" />
<glyph unicode="&#x52;" glyph-name="44-bebe" d="M476 960c-210 0-378-168-378-378h378zM728 120c-40 40-104 42-146 4l-60 60 64 64-10 10-64-64-64 64-10-10 64-64-60-60c-42 38-106 36-146-4-44-42-44-110 0-152 42-42 110-42 152 0 40 40 42 104 4 146l60 60 60-60c-38-42-36-106 4-146 42-42 110-42 152 0s42 110 0 152zM240 246h544c86 80 142 194 142 322h-828c0-128 56-242 142-322z" />
<glyph unicode="&#x53;" glyph-name="45-tv" d="M2 830h1020v-626h-400l-58-82c104-4 208-24 312-56h-728c104 32 208 52 312 56l-58 82h-400zM80 760h864v-488h-864zM134 310c12 40 674 412 770 412v-412z" />
<glyph unicode="&#x54;" glyph-name="46-piscina" d="M172 144c18 0 34-2 52-4v40l254-22v-70c6 0 14 0 20 0 2-2 6-2 10-2 20 0 38 2 56 6v392c0 30 18 58 46 64 22 6 36 30 30 52s-28 36-52 30c-64-16-110-76-110-146v-66l-254 22v72c0 32 20 58 50 66 22 6 34 28 30 50-6 22-28 36-50 30-66-16-112-76-112-146v-368c6 0 10 0 16 0 4 0 10 0 14 0zM224 356l254-20v-96l-254 22zM6 38c0 0 2 0 2 0 2 0 6 2 16 2 16 2 34 4 54 2 16 0 38-2 64-4 24-4 52-8 82-14 34-8 74-18 120-32s88-20 130-22c2 0 2 0 4 0s4 0 6 0c30 0 56 4 80 10 106 28 146 104 150 112 2 6 2 12-2 16-2 2-6 4-8 4-4 0-6-2-10-4 0 0 0-2-2-2-2-2-4-4-8-8-6-4-18-12-34-22-20-8-48-20-88-26-16-2-34-2-54-2-4 0-8 0-12 0-6 0-12 0-16 0-42 2-86 12-132 24-44 14-86 22-124 28-18 2-36 4-52 4-6 0-10 0-14 0-6 0-10 0-16 0-100-4-142-40-142-42-6-2-6-10-6-14 2-6 6-10 12-10zM922 866c0 34-24 60-54 60s-54-26-54-60c0-32 24-60 54-60s54 28 54 60zM1020 684l-92 90c0 0-2 2-4 4 0 0-2 2-4 2-4 4-10 6-14 6h-74c-6 0-12-2-16-6 0 0-2 0-2-2-2 0-4-2-6-4l-90-90c-6-8-6-18 2-24 6-6 16-6 22 0l72 66-62-126c34-22 74-34 116-34 44 0 84 12 118 34l-62 124 72-64c6-6 16-6 22 0 6 8 8 16 2 24z" />
<glyph unicode="&#x55;" glyph-name="47-golf" d="M454 342c-6 0-12-2-16-2v596c0 14-12 24-24 24-14 0-24-10-24-24v-598c-152-18-266-100-266-200 0-112 148-202 330-202s412 276 412 388c0 112-230 18-412 18zM414 84c-70 0-126 30-126 68 0 34 44 62 102 68v-68c0-14 10-24 24-24 12 0 24 10 24 24v68c58-6 102-34 102-68 0-38-56-68-126-68zM492 916c0 0 66 40 128-26 0 0 56-50 88-14 32 38 122 44 192-6 0 0-118-32-148-110 0 0-34-94-122-52 0 0-128 58-138 4z" />
<glyph unicode="&#x56;" glyph-name="48-pota" d="M60 582c0 92 74 168 164 168 2 0 4 0 6-2 16 76 82 132 160 132 50 0 96-22 126-58-32 60-96 102-170 102-42 0-84-12-116-38-26-20-46-44-58-72-96-12-172-94-172-194s74-182 170-196c-64 24-110 86-110 158zM874 492c-52 26-108 46-164 62 0 0-2 0-2 0 0 32-10 66-30 92-26 34-62 58-104 64s-84-4-118-30c-28-20-46-48-56-78-2 0-2 0-2 0-60 2-118 0-176-12-16-4-28-16-30-32-4-22 10-42 32-44l626-96c16-2 32 6 40 22 10 18 2 42-16 52zM546 588c-24 2-46 6-70 8-2 0-6 0-8 2 6 10 16 22 26 30 20 14 46 20 70 16 24-2 46-16 60-36 10-12 14-24 18-38-32 6-64 12-96 18zM1022 276c-6 26-32 40-58 34l-92-26v86h-668v-86l-94 26c-24 6-52-8-58-34-8-26 8-52 34-58l118-34v-132c0-44 36-80 80-80h506c44 0 82 36 82 80v134l116 32c26 6 42 32 34 58z" />
<glyph unicode="&#x57;" glyph-name="49-flor" d="M92 400c-60-312 316-330 332-320-10 358-310 340-332 320zM766 900c-16 12-142-112-150-112s-74 172-90 172c-14 0-76-170-84-172-6-2-138 128-150 122-10-6-72-434 184-486v-410c0-42 22-78 48-78h8c26 0 48 36 48 78v412c86 24 240 114 186 474zM642 174c22-18 288-34 298 284-16 8-350-8-298-284zM660 708c0-76-62-138-138-138s-138 62-138 138c0 76 62 140 138 140s138-64 138-140z" />
<glyph unicode="&#x58;" glyph-name="50-souvenir" d="M770 366c8 6 18 6 24-2 6-6 4-16-2-22l-264-226c-6-6-16-6-22 0-6 8-6 18 2 24zM684 116c-6-6-16-6-22 0-6 8-6 18 2 24l106 92c8 6 18 6 24-2 6-6 4-16-2-22zM614 366c8 6 18 6 24-2 4-6 4-16-2-22l-108-92c-6-6-16-6-22 2-6 6-6 16 2 22zM304 220c8-6 14-16 14-28 0-16-14-32-32-32s-32 16-32 32c0 12 6 22 16 28v108c-10 6-16 16-16 28 0 18 14 32 32 32s32-14 32-32c0-12-6-22-14-28zM32-28c-18 0-32 14-32 32s14 32 32 32h48v354c8-2 18-2 26-2s16 0 22 2v-354h240v366c12 4 22 12 32 20v-386h496v354c8-2 16-2 22-2 10 0 18 0 26 2v-354h48c18 0 32-14 32-32s-14-32-32-32zM528 806l2-200c-12 0-22 0-32 0v200c10 0 20 0 30 0zM848 606c-10 0-22 0-32 0l-46 200c10 0 22 0 32 0zM690 606c-12 0-22 0-32 0l-24 200c12 0 22 0 32 0zM366 606c-10 0-20 0-30 0l22 200c10 0 20 0 30 0zM208 606c-12 0-22 0-32 0l46 200c10 0 20 0 32 0zM130 852h764l130-296c-342 0-682 0-1024 0zM1024 526c0-58-52-106-106-106-52 0-88 32-100 78-12-46-54-78-102-78-50 0-90 32-102 78-12-46-54-78-102-78s-90 32-102 78c-12-46-52-78-100-78-50 0-90 32-102 78-12-46-54-78-102-78-58 0-106 48-106 106zM914 924h-804c-32 0-32-48 0-48h804c32 0 32 48 0 48z" />
<glyph unicode="&#x59;" glyph-name="51-bano" d="M-2 698c4 0 12 0 14-2 114-44 168-40 322 8 4 2 10 0 16 0 20-2 48-6 82-18 84-20 108-18 220 8 24 6 46 8 70 6 60-10 124-36 182-34 46 2 86 10 118 26v-50c-64-24-150-30-202-8-84 26-146 26-240-10-28-4-58-8-88-2-66 24-128 36-184 26-48-8-92-32-144-34-54-2-126 22-168 32zM2 786c4 0 12 0 14 0 114-46 168-40 320 6 4 2 12 2 16 2 22-4 48-8 84-18 82-22 108-20 220 8 22 4 44 6 70 6 60-12 122-38 180-36 46 2 88 12 120 26v-50c-66-24-150-30-202-8-84 26-146 28-240-10-28-4-58-6-90-2-66 26-126 36-182 26-48-6-92-32-144-34-56 0-126 22-168 32zM54 570c-12-138 42-266 148-330l-20-46c-14-30-2-64 28-78 8-4 16-6 24-6 24 0 44 12 54 34l28 60c12-2 26-4 38-4 108 0 244 0 388 0l26-56c10-22 32-34 54-34 8 0 18 2 26 6 28 14 42 48 28 78l-12 24c102 64 96 282 96 282-676 0-906 70-906 70z" />
<glyph unicode="&#x5a;" glyph-name="52-percha" d="M548 678c0 4-2 6-4 8 10 24 26 44 40 62 22 26 42 52 42 82 0 64-52 118-116 118-62 0-114-58-114-112h40c0 40 34 72 74 72 42 0 74-38 74-80 0-14-14-34-30-56-16-18-34-40-46-68-12-2-24-10-30-24l-472-238v-12c0-60 48-80 82-80h112v-304h610v304h126c60 0 82 46 82 80v12zM936 392h-132c-10 30-36 56-70 56h-452c-32 0-62-26-76-56h-118c-8 0-34 2-40 30l430 214c6-16 20-28 36-28 14 0 28 12 34 26l428-214c-4-12-12-28-40-28zM200 18h610v-70h-610z" />
<glyph unicode="&#x5b;" glyph-name="85-norton" d="M172 592c-96 0-172-76-172-170 0-96 76-172 172-172 94 0 170 76 170 172 0 94-76 170-170 170zM170 538c66 0 118-52 118-116 0-66-52-118-118-118-64 0-118 52-118 118 0 64 54 116 118 116zM394 556v-150h30v104l52-104h32v150h-30v-94l-48 94zM576 518c-32 0-56-24-56-56s24-58 56-58c32 0 58 26 58 58s-26 56-58 56zM576 492c16 0 30-14 30-30s-14-30-30-30c-16 0-28 14-28 30s12 30 28 30zM642 516v-110h32v46c0 14 2 24 8 30 6 8 12 12 28 12h12v-50c0-8 0-14 2-20 4-12 14-20 32-20 10 0 18 2 26 4l-4 22c-4 0-8-2-12-2-10 0-12 4-12 14v52h24v22h-24v32h-26l-6-32h-14c-6 0-10 0-12 0-16-4-22-16-26-24l-10 24zM838 518c-32 0-56-24-56-56s24-58 56-58c32 0 58 26 58 58s-26 56-58 56zM838 492c16 0 30-14 30-30s-14-30-30-30c-16 0-28 14-28 30s12 30 28 30zM966 518c-14 0-26-6-38-18l-6 16h-18v-110h30v76c4 4 12 10 20 10 12 0 16-8 16-16v-70h32v72c0 26-16 40-36 40zM1006 504v10h-4v2h10v-2h-4v-10zM1012 504v12h4l2-8 2 8h4v-12h-2v10l-2-10h-2l-2 10v-10zM344 632v-14h14v14zM344 618h-24v-12h24zM320 606h-12v-26h12zM320 580v-12h12v12zM332 580h14v12h-14zM320 568h-12v-14h-12v14h-22v-10h-10v-10h12v-14h-12v14h-14v-20h-12v-12h-10v-14h-8c-20-32-34-60-44-82-24 32-36 44-56 56-8 4-14 6-20 4-4-4-6-12 0-18 40-44 46-66 60-98 4-10 12-14 20-14 6 0 12 0 16 6 2 2 2 4 4 8 12 28 24 56 42 84v14h10v12h12v14h12v14h-12v14h12v-14h12v14h10v14h12v10h10zM296 568h12v12h-12zM296 580v12h-14v-12zM320 606h12v-14h-12zM358 618h12v-12h-12zM358 646h12v-14h-12zM400 288h-6v82h10v-30c4 4 10 8 16 8 18 0 24-16 24-30 0-16-10-30-26-30-6-2-12 2-16 8zM404 302c4-4 6-6 14-6 12 0 14 12 14 22 0 12-2 20-14 22-6 0-10-4-14-8zM452 268l2 8c8-2 14 0 18 8l-22 62h10l16-48 14 48h10l-20-64c-6-14-16-18-28-14zM530 296l6 8c6-6 12-8 22-8s18 6 18 14c-2 22-42 10-42 40 0 14 12 22 24 22 8 0 16-2 22-6l-4-8c-2 2-12 4-18 4-8 0-14-2-14-10 0-22 42-10 42-42 0-14-12-22-28-22-14 0-26 6-28 8zM652 288v58h6l2-8c4 6 14 10 20 10 8 0 12-6 14-10 4 6 12 10 18 10 14 0 16-8 16-18v-42h-10v38c0 8 0 14-8 14s-12-6-14-8v-44h-12v38c0 8 0 14-8 14-6-2-8-4-14-8v-44zM778 296c-6-6-12-8-18-8-10 0-18 6-18 16 0 12 8 14 16 16 6 4 12 4 18 6 0 10-2 14-10 14s-14-4-18-6l-4 8c4 2 10 6 22 6s20-8 20-20v-40h-6zM776 318c-6 0-10-2-14-4-8-2-10-4-10-10s4-8 10-8c6 0 8 2 14 6zM892 296l2-6c-4-2-10-2-12-2-12 0-14 8-14 16v36h-8v6h8l4 18h6v-18h14v-6h-14v-36c0-8 4-8 8-8 4-2 6 0 6 0zM944 302l4-6c-6-4-10-8-20-8-18 0-26 12-26 30 0 16 6 30 24 30 20 0 22-20 22-34h-36c0-10 4-18 14-18s18 6 18 6zM912 322h26c0 8-2 18-12 18-12 0-14-10-14-18zM1002 296c-4-6-10-8-20-8-16 0-24 12-24 30 0 16 8 30 26 30 8 0 12-4 16-6l-4-6c-2 2-8 4-12 4-12 0-16-10-16-22s4-22 16-22c4 0 8 0 14 6zM592 268l2 8c8-2 14 0 18 8l-20 62h10l14-48 14 48h10l-20-64c-4-14-16-18-28-14zM804 288v58h6l2-8c4 6 14 10 22 10 10 0 14-10 14-20v-40h-10v38c0 8 0 14-8 14-6-2-10-4-16-8v-44z" />
<glyph unicode="&#x5c;" glyph-name="94-left" d="M704-64c-28 0-52 12-72 30l-426 402c-22 20-36 50-36 80s14 60 36 80l426 404v-2c20 18 44 30 72 30 58 0 106-50 106-110 0-32-12-60-34-80l-340-322 340-322c22-20 34-48 34-80 0-60-48-110-106-110z" />
<glyph unicode="&#x5d;" glyph-name="86-top" d="M0 192l512 512 512-512-512 394z" />
<glyph unicode="&#x5e;" glyph-name="87-facebook" d="M512-64c-282 0-512 230-512 512s230 512 512 512c282 0 512-230 512-512s-230-512-512-512zM512 914c-258 0-466-208-466-466s208-466 466-466c258 0 466 208 466 466s-208 466-466 466zM644 548h-90v60c0 22 16 28 26 28s64 0 64 0v98h-88c-98 0-120-74-120-120v-66h-56v-100h56c0-130 0-286 0-286h118c0 0 0 158 0 286h80z" />
<glyph unicode="&#x5f;" glyph-name="88-lupa" d="M992 124l-178 178c-20 18-46 30-70 30l-62 62c90 142 74 334-50 458-144 144-380 144-524 0s-144-380 0-524c124-124 316-140 458-50l62-62c0-24 12-50 30-70l178-178c44-42 114-42 156 0s42 112 0 156zM582 440c-4 24-12 42-26 48l-106 42-24 22c-8 4-16 4-22-2l-36-34-34 34c-6 6-16 6-22 2l-26-22-106-42c-12-6-20-22-26-44-68 100-58 240 32 330 102 102 266 102 368 0 90-90 100-232 28-334zM368 816c-66-2-106-40-106-106 0-94 40-152 106-150 66-2 106 56 106 150 2 66-38 104-106 106z" />
<glyph unicode="&#x60;" glyph-name="89-bottom" d="M754 516l-228-228c-6-6-12-8-20-8-6 0-12 2-18 8l-218 216c-10 12-10 28 0 38 12 12 28 12 38 0l198-198 210 210c10 10 26 10 38 0 10-10 10-28 0-38zM1024 448c0-282-230-512-512-512s-512 230-512 512c0 282 230 512 512 512s512-230 512-512zM970 448c0 254-204 458-458 458s-458-204-458-458c0-254 204-458 458-458s458 204 458 458z" />
<glyph unicode="&#x61;" glyph-name="1-recipcion" d="M612 760v16l20 18c44 42 66 66 66 92 0 18-10 34-36 34-16 0-28-8-38-14l-6 16c12 10 28 18 50 18 38 0 54-26 54-50 0-34-24-60-62-96l-14-14h80v-20zM826 760v48h-82v16l80 114h26v-110h24v-20h-24v-48zM826 828v58c0 10 2 20 2 28h-2c-4-10-8-18-14-26l-44-60zM900 954h24v-82c4 6 10 12 18 16s16 8 24 8c18 0 46-12 46-58v-78h-24v76c0 22-8 40-30 40-16 0-28-12-32-24-2-4-2-8-2-12v-80h-24zM396 506h42v-42c12 2 24 2 36 2s24 0 36-2v42h42c18 0 34 14 34 34 0 18-16 32-34 32h-156c-18 0-34-14-34-32 0-20 16-34 34-34zM770 42c-6 8-14 14-24 14h-554c-8 0-18-6-24-14l-50-78c-6-8-6-20-2-28 6-10 14-16 26-16h656c10 0 20 6 24 16 4 8 4 20-2 28zM132 136c2-18 16-30 34-30h616c18 0 32 12 34 28 2 18-8 32-24 38 0 0-22 8-28 36-14 72-44 130-94 168-42 34-96 54-160 60-12 0-24 2-36 2s-26-2-38-2c-62-6-116-26-158-60-50-38-80-96-94-168-4-26-26-34-30-36-16-4-24-20-22-36zM250 196c18 100 78 158 178 170-6-8-14-18-20-32-16-32-26-76-30-132 0-2 0-6-2-8 0-8 0-14 0-20h-132c2 6 4 14 6 22zM704 174h-108c0 6 0 12-2 20 0 2 0 6 0 8-4 50-14 92-28 124-6 14-12 26-20 36 84-20 134-74 152-166 2-8 4-16 6-22zM132 268c4 10-2 20-12 24l-68 22c-4 0-6 2-10 0-18 0-32-14-30-32 0-16 14-30 32-30l72 4c8 0 14 4 16 12zM180 508l56-46c6-4 14-6 22-2 8 6 12 18 6 26l-36 62c-2 4-4 6-8 8-12 12-32 10-44-4-10-12-8-32 4-44zM898 314l-70-22c-6-2-12-10-12-18 0-10 8-18 18-18l72-4c4 0 8 2 10 2 16 6 26 22 20 40-4 16-22 24-38 20zM716 462l54 46c4 4 6 6 8 8 8 16 4 34-12 44-14 8-34 4-42-12l-36-62c-4-6-4-14 0-22 8-8 20-8 28-2z" />
<glyph unicode="&#x62;" glyph-name="2-serv-habitacion" d="M700 378h-658c-18 0-30-14-30-30 0-18 12-32 30-32h658c16 0 30 14 30 32 0 16-14 30-30 30zM288 298c-12-2-16-14-12-26 14-10 50-34 86-52-30 46-44 86-74 78zM376 64h154c10 42 40 156 50 190 8 30-8 58-44 30-36-26-56-110-98-110-16 2-36 6-54 14-2 0-2 0-2 0-42 18-98 56-118 68-30 20-56 36-72 38-30 6-44-16-32-32 12-18 86-70 140-122 40-38 60-60 76-76zM394 204c6-4 30-12 54-8 0 0-4 100-36 102-38 2-22-82-20-94 0 0 2 0 2 0zM306 30l24-106h282l-26 106zM340 628c-52-32-90-114-90-212h274c0 86-30 160-72 200 80-34 134-110 134-200h58c0 140-106 256-244 270 14 10 22 26 22 42 0 28-22 52-52 52-28 0-50-24-50-52 0-16 8-32 22-42-138-14-244-130-244-270h56c0 108 82 198 186 212zM616 776v14l18 18c46 42 66 66 66 92 0 18-8 34-36 34-14 0-28-8-36-14l-8 16c12 10 30 18 50 18 38 0 54-26 54-50 0-34-24-60-60-96l-14-12h78v-20zM828 776v48h-82v14l80 114h24v-110h26v-18h-26v-48zM828 842v58c0 10 0 20 2 28h-2c-6-10-10-18-14-26l-44-60zM902 968h22v-82h2c4 6 10 12 16 16 8 4 16 8 24 8 18 0 46-12 46-56v-78h-24v74c0 22-8 40-30 40-14 0-28-12-32-24 0-4-2-8-2-12v-78h-22z" />
<glyph unicode="&#x63;" glyph-name="3-nieve" d="M990 410h-62c12-12 24-24 36-36 32-32-18-84-52-50-28 28-56 54-86 82h-124c-4-22-14-44-26-64 36-36 68-68 88-88 40 0 78-2 120-2 46 0 46-72 0-72h-52c14-14 28-30 44-44 32-34-18-84-52-52-14 16-28 30-42 46v-54c0-46-72-46-72 0v126c-20 18-52 50-86 86-22-14-46-26-70-30v-124c28-30 52-58 82-88 32-32-18-82-52-50l-36 36c0-20 0-40 0-62 0-46-72-46-72 0 0 20 2 42 2 62-14-12-26-24-38-36-32-34-84 18-50 50 28 30 58 60 88 88v122c-26 4-50 14-72 28-34-36-68-68-88-88 0-40-2-78-2-120 0-46-72-46-72 0v52c-14-14-28-30-44-44-32-32-84 18-50 52 14 14 28 28 44 42h-54c-44 0-44 72 0 72h126c20 18 52 52 86 86-14 20-26 44-30 70h-124c-28-28-58-54-86-82-34-34-84 18-52 50 14 12 26 24 38 36h-64c-46 2-46 74 0 72 22 0 42 0 62 0-12 12-24 26-36 38-34 32 18 82 50 50 30-30 60-60 88-88 28 0 72 0 122 0 4 28 16 54 32 78-34 34-66 66-86 84h-126c-44 0-44 72 0 72h54c-16 16-30 30-44 44-34 32 18 84 50 50 16-14 30-28 44-44v52c0 46 72 46 72 0 0-40 2-78 2-120 20-18 54-50 88-86 22 14 46 24 72 28v122c-30 28-60 58-88 88-34 32 18 84 50 50 12-12 24-24 38-38 0 22-2 42-2 64 0 46 72 46 72 0 0-22 0-42 0-64 12 12 24 26 36 38 34 32 84-18 52-52-30-28-54-58-82-86v-122c26-6 50-18 70-32 34 34 66 66 86 86v124c0 46 72 46 72 0v-52c14 14 28 30 42 44 34 32 84-18 52-52-16-14-30-28-44-44h52c46 0 46-70 0-70-42 0-80-4-120-4-20-18-52-52-88-86 14-22 24-46 28-72 50 0 94 0 122 0 30 28 58 58 88 88 32 32 84-18 50-50-12-12-24-26-36-38 20 0 40 0 62 0 46 2 46-70 0-72" />
<glyph unicode="&#x64;" glyph-name="4-nino" d="M768 750c50 36 62 106 24 156-36 50-108 62-158 24-50-36-60-106-24-156 38-50 108-62 158-24zM308 414c46 34 56 100 22 148-34 46-100 56-148 22-46-34-56-100-22-148 34-46 100-56 148-22zM822 514c62-92 94-194 94-196 6-16 20-26 36-26 4 0 8 0 12 0 20 6 30 28 26 48-4 8-64 208-194 318-12 10-46 30-92 30-70 0-124-28-174-102-94-136-112-224-332-248-54-8-70-4-134-6-14 0-28-10-30-24-4-16 8-30 22-34 42-6 76-10 134-8v-284c0-22 16-38 36-38 22 0 38 16 38 38v138h40v-138c0-22 16-38 38-38 20 0 38 16 38 38v324c110 52 146 132 206 226l-50-334c0-4 0-10 4-14s10-6 14-6h56v-196c0-22 16-38 38-38 20 0 36 16 36 38v196h40v-196c0-22 18-38 38-38 22 0 38 16 38 38v196h52c6 0 10 2 14 6s6 10 4 14z" />
<glyph unicode="&#x65;" glyph-name="5-books" d="M666 808v20c0 12-6 22-14 28-10 6-22 6-32 2l-308-148c-20-10-50-12-70-12-34 0-64 6-86 20-4 2-6 4-10 8-8 6-4 18 8 24l290 136 30-14v46c0 12-4 22-14 28s-20 6-30 2l-308-140c-50-22-56-44-58-90v-500c0-16 4-30 10-44 8-18 22-34 42-46 28-20 68-30 112-30 32 0 82 12 86 12 0 0 2 0 2 0v448c0 58 14 96 82 126zM946 694c-10 6-22 8-32 2l-308-146c-22-10-52-14-70-14-34 0-64 8-86 20-4 2-8 6-10 8-10 8-4 18 8 26l290 134 30-12v46c0 10-4 22-14 28-10 4-22 6-30 2l-308-142c-50-22-58-42-58-88v-500c0-38 18-70 52-92 28-20 68-30 112-30 26 0 54 4 82 12 4 2 334 174 334 174 10 6 22 18 22 30v514c0 12-6 22-14 28zM894 508c0-16-12-32-26-38l-56-32-16-160c-2-20 4-26 16-20 18 8 30 32 32 38 2 2 4 6 6 10 10 16 28 26 36 20 8-4 8-18 2-32-12-26-40-72-80-92-26-12-44-10-54 6-8 14-8 36-8 46l16 160-44-20c-2-20-6-54-14-94-14-70-40-128-72-178-6-8-14-14-22-18-6-2-12-4-18 0-8 6-8 26 4 44 38 52 60 130 68 218l-16-6c-6-4-28-16-40-62-4-14-14-28-24-32-2-2-4-2-6-2-12-4-18 6-14 22 20 78 68 118 90 128l220 108c12 6 22 0 20-14z" />
<glyph unicode="&#x66;" glyph-name="6-coche" d="M934 194c0-30-28-54-64-54s-64 24-64 54c0 30 28 56 64 56s64-26 64-56zM870 240c-24 0-44-20-44-44 0-26 20-46 44-46s44 20 44 46c0 24-20 44-44 44zM698 382c0-50-40-90-90-90h-190c-50 0-90 40-90 90s40 92 90 92h190c50 0 90-42 90-92zM214 194c0-30-28-54-64-54-34 0-64 24-64 54s30 56 64 56c36 0 64-26 64-56zM780 44c0-20 16-34 34-34h110c18 0 34 14 34 34v100h-178zM62 44c0-20 16-34 34-34h110c18 0 32 14 32 34v100h-176zM666 426c-2 10-8 16-16 16h-282c-8 0-14-6-16-16 0-2 0-2 0-4 0 0 0 0 0-2 0 0 0 0 0-2 0 0 14-110 58-110 0 0 2 0 2 0h194c0 0 0 0 2 0 44 0 58 110 58 110 0 2 0 2 0 2 0 2 0 2 0 2 0 2 0 2 0 4zM600 352h-182c-4 6-10 24-16 44h214c-6-20-10-38-16-44zM958 418c-6 44-20 74-42 90-2 2-10 2-12 2 0 0-98 0-130-30-14-16-22-36-22-62 0-2 0-2 0-2 0-4 4-8 8-8h188c0 0 0 0 2 0s4 2 6 2c0 2 0 2 0 4 0 0 2 2 2 2s0 0 0 2zM712 818h-406c-100 0-154-126-178-220h762c-26 94-80 220-178 220zM242 478c-32 32-128 32-128 32-4 0-10 0-12-2-22-16-36-46-42-90 0-2 0-2 0-2s0-2 0-2c2-2 2-2 2-4 2 0 2-2 4-2s2 0 2 0 0 0 2 0h186c6 0 10 4 10 8 0 0 0 0 0 2 0 26-8 46-24 60zM150 240c-26 0-46-20-46-44 0-26 20-46 46-46 24 0 44 20 44 46 0 24-20 44-44 44zM1024 352c0 68-14 136-52 176-6 52-58 358-262 358h-402c0 0-2 0-2 0-204 0-254-306-260-358-38-40-52-108-52-176 0-30 2-60 6-86h1018c4 26 6 56 6 86zM306 818h406c98 0 152-126 178-220h-762c24 94 78 220 178 220zM266 416c0-4-4-8-10-8h-186c-2 0-2 0-2 0s0 0-2 0-2 2-4 2c0 2 0 2-2 4 0 0 0 2 0 2s0 0 0 2c6 44 20 74 42 90 2 2 8 2 12 2 0 0 96 0 128-32 16-14 24-34 24-60 0-2 0-2 0-2zM666 418c0 0-14-110-58-110-2 0-2 0-2 0h-194c-2 0-2 0-2 0-44 0-58 110-58 110 0 2 0 2 0 2 0 2 0 2 0 2 0 2 0 2 0 4 2 10 8 16 16 16h282c8 0 14-6 16-16 0-2 0-2 0-4 0 0 0 0 0-2 0 0 0 0 0-2zM956 414c0-2 0-2 0-4-2 0-4-2-6-2s-2 0-2 0h-188c-4 0-8 4-8 8 0 0 0 0 0 2 0 26 8 46 22 60 32 32 130 32 130 32 2 0 10 0 12-2 22-16 36-46 42-90 0-2 0-2 0-2s-2-2-2-2zM418 352h182c6 6 10 24 16 44h-214c6-20 12-38 16-44zM0 266c8-56 18-102 26-118 6-12 18-20 32-20h450c0 0 0 0 2 0h450c16 0 28 8 32 22 8 14 20 60 26 116zM150 150c-26 0-46 20-46 46 0 24 20 44 46 44 24 0 44-20 44-44 0-26-20-46-44-46zM870 150c-24 0-44 20-44 46 0 24 20 44 44 44s44-20 44-44c0-26-20-46-44-46z" />
<glyph unicode="&#x67;" glyph-name="7-recepcion" d="M440 348c0-32-24-58-56-58s-58 26-58 58c0 32 26 58 58 58s56-26 56-58zM700 348c0-32-26-58-58-58s-58 26-58 58c0 32 26 58 58 58s58-26 58-58zM916 532c-10 12-28 26-52 34v16c0 2 0 6 0 8v296c0 16-10 30-24 34-6 2-134 40-326 40-194 0-324-38-328-40-16-4-26-18-26-34v-296c0-2 0-6 0-8v-16c-24-8-42-22-52-34-28-32-38-84-28-150 10-68 48-106 78-122 34-118 102-194 154-238 64-54 140-86 200-86s138 32 200 84c54 44 122 120 154 240 32 16 68 54 78 122 10 66 0 118-28 150zM222 648v34c2 2 6 2 8 2 50 12 152 30 284 30 130 0 230-18 280-30 4 0 6 0 8-2v-62c-4 0-10 2-16 2-2 2-4 2-6 2-56 12-150 26-266 26-24 0-48 0-68-2-10 0-20 0-28-2-12 0-22 0-34-2-6 0-14-2-22-2-6 0-12-2-20-2-42-6-78-12-104-18-6 0-12-2-16-2zM868 394c-8-54-36-66-42-68l-24-4-4-26c-46-198-212-284-286-284-32 0-90 18-152 68-46 40-106 108-134 218l-2 24-26 4c-6 2-34 14-42 68-6 42-4 74 10 88 4 6 12 12 30 12v-60c0-18 14-32 32-32s32 14 32 32v34c6 2 14 2 20 6 56 18 94 46 118 74 50-56 154-116 364-50v-64c0-18 14-32 32-32 16 0 30 14 30 32v60c22 0 30-6 34-12 14-14 18-46 10-88z" />
<glyph unicode="&#x68;" glyph-name="8-desayuno" d="M472 312c-34 42-70 64-108 64-64 0-104-62-106-66-2-2-2-4-2-8l54-194c2-2 2-4 4-6 16-10 34-16 52-16 30 0 52 12 52 12 2 2 4 4 4 6l52 198c2 4 0 8-2 10zM202 270c-42 8-70-10-94-34-44-40-46-82-46-86 0-2 0-4 2-6l120-100c0-2 2-2 4-2 16-2 38 2 52 14 20 20 16 30 16 32 0 4 0 6-2 8l-46 170c-2 2-4 4-6 4zM140 14l-120 94c0 0-32-56-14-150 0 0 8-48 54 2 0 0 46 38 80 54zM530 270c42 8 68-10 94-34 44-40 46-82 46-86 0-2 0-4-2-6l-120-100c-2-2-2-2-4-2-16-2-38 2-52 14-20 20-16 30-16 32 0 4 0 6 2 8l46 170c2 2 4 4 6 4zM592 14l118 94c0 0 34-56 16-150 0 0-8-48-54 2 0 0-46 38-80 54zM760 152c0-2 2-4 2-6h92c118 0 124 66 124 66h-252c8-18 12-32 12-42 10-4 16-10 22-18zM1006 572h-2c-16 22-40 34-70 34-14 0-28-2-42-8v6c0 20-16 36-36 36h-364c-20 0-36-16-36-36v-196c30-14 58-38 84-70 2-4 4-6 6-10 8 2 14 2 20 2 52 0 84-26 112-50 2-2 4-4 6-8h172c20 0 36 18 36 38v52c64 22 106 54 124 96 22 58-8 110-10 114zM980 474c-12-30-42-54-88-72v156c14 6 30 10 42 10 18 0 30-6 40-18 4-6 20-40 6-76zM616 712c0 0 40 20 12 116 0 0-12 36 28 130 0 0-82-122-44-190 0 0 18-30 4-56zM726 712c0 0 42 20 14 116 0 0-14 36 26 130 0 0-80-122-44-190 0 0 20-30 4-56z" />
<glyph unicode="&#x69;" glyph-name="9-cambio" d="M662 186c16-36 40-64 74-84s72-30 114-30c26 0 54 6 84 16v-116c-26-6-54-10-86-10-74 0-140 20-196 58-54 40-92 96-112 166h-60l16 68h32c0 4 0 14 0 26s0 20 0 26h-48l18 68h42c22 68 60 124 116 164 58 40 122 60 194 60 28 0 56-6 84-14l-26-108c-20 8-42 10-60 10-40 0-76-10-110-30-32-20-58-48-76-82h222l-16-68h-226c0-12-2-20-2-26s2-16 2-26h214l-16-68zM224 270v80c-56 2-110 18-144 36l26 100c36-20 86-38 140-38 50 0 82 18 82 52 0 32-28 52-90 74-90 30-152 72-152 154 0 76 52 134 142 152v80h84v-74c56-4 94-14 122-28l-24-96c-22 10-60 28-122 28-54 0-72-22-72-46 0-28 30-46 100-74 102-34 142-82 142-158 0-74-54-140-150-156v-86z" />
<glyph unicode="&#x6a;" glyph-name="10-gym" d="M318 236c-34 0-72 62-84 150-4 20-4 40-4 62s0 42 4 62c12 88 50 150 84 150 28 0 60-42 76-106h62c-6 28-16 54-26 78-28 56-68 88-112 88h-98c-44 0-82-32-110-88-18-34-28-74-34-118h-38c-20 0-38-30-38-66s18-66 38-66h38c6-44 16-84 34-118 28-56 66-88 110-88h98c44 0 84 32 112 88 10 24 20 50 26 78h-62c-16-64-48-106-76-106zM806 236c-36 0-76 68-88 164 0 14-2 30-2 48 0 16 2 34 2 48 12 96 52 164 88 164 28 0 58-42 76-106h60c-6 28-14 54-26 78-28 56-68 88-110 88h-98c-44 0-84-32-112-88-12-24-20-50-26-78-4-14-6-26-8-40h-208c-22 0-40-30-40-66s18-66 40-66h208c2-14 4-26 8-40 6-28 14-54 26-78 28-56 68-88 112-88h98c42 0 82 32 110 88 12 24 20 50 26 78h-60c-18-64-48-106-76-106zM986 514h-140c-22 0-38-30-38-66s16-66 38-66h140c20 0 38 30 38 66s-18 66-38 66z" />
<glyph unicode="&#x6b;" glyph-name="11-bottom" d="M958 226v-178h-892v178h-66v-268h1024v268zM474 204c10-14 26-22 42-22 18 0 34 8 44 22l196 286c12 16 14 42 4 58-8 18-26 34-46 34h-68v322c0 26-22 34-48 34h-162c-26 0-36-8-36-34v-322h-80c-20 0-38-16-46-34-10-16-8-40 2-56z" />
<glyph unicode="&#x6c;" glyph-name="12-top" horiz-adv-x="1075" d="M1005.339 215.909v-186.606h-933.030v186.606h-72.31v-279.909h1075.317v279.909zM781.412 640.437l-200.601 296.237c-9.33 13.995-25.658 23.326-44.319 23.326-16.328 0-32.656-9.33-44.319-23.326l-200.601-296.237c-11.663-16.328-11.663-41.986-2.333-60.647 9.33-16.328 27.991-39.654 46.651-39.654h88.638v-319.563c0-25.658 16.328-53.649 44.319-53.649h135.289c25.658 0 44.319 27.991 44.319 53.649v319.563h88.638c18.661 0 37.321 20.993 46.651 39.654s9.33 44.319-2.333 60.647z" />
<glyph unicode="&#x6d;" glyph-name="13-parking" d="M366 280v-336h-236v1008h358c70 0 132-8 182-24 52-18 94-40 126-70 34-30 58-64 74-104 16-42 24-84 24-132 0-50-10-96-26-138s-40-78-74-108c-32-30-74-54-126-70-50-16-112-26-180-26zM366 458h122c60 0 104 14 130 44 28 28 40 68 40 120 0 24-2 44-10 64-6 18-16 36-32 48-14 14-30 24-52 32s-48 12-76 12h-122z" />
<glyph unicode="&#x6e;" glyph-name="14-peluqueria" d="M938 240l-118-120-44 46 118 118c18 18 18 48 0 66-18 20-48 20-66 0l-120-118-44 44 118 120c18 18 18 48 0 66s-44 18-64 4l-120-122-38-36-30-32 146-144 110-112c10-10 22-14 34-14s24 4 34 14l152 152c18 18 18 48 0 68-18 18-48 18-68 0zM202 606l110-112c2 0 2 0 2 0l32-34 28 30 40 38 122 124c14 18 12 44-4 60-18 20-48 20-68 0l-118-118-44 44 118 120c18 18 18 48 0 66s-48 18-66 0l-120-118-44 44 118 120c20 18 20 48 0 66-18 18-48 18-66 0l-152-152c-10-8-14-20-14-34 0-12 4-24 14-32zM128 158c30 0 60 10 88 26 8 4 16 10 24 16l10 12 192 192c8 8 22 8 30 0 10-10 10-22 0-32l-210-210c-4-4-6-10-10-14-36-60-34-132 10-176 22-24 54-36 88-36 46 0 90 20 126 54 64 66 72 162 20 214-6 8-14 12-22 18-14 8-28 14-44 16l136 136 358 360c34 32 34 88 0 120-34 34-88 34-122 0l-358-358-138-136c-2 16-8 32-16 44-4 8-10 16-16 22-24 24-56 36-90 36-44 0-90-20-124-54-30-32-50-70-54-108-6-42 6-80 34-106 22-24 54-36 88-36zM450 160c28-28 18-84-20-124-22-22-52-36-80-36-12 0-28 4-42 16-26 26-20 72 8 110 4 4 8 8 12 14 22 22 52 36 78 36 6 0 12-2 20-4s16-6 24-12zM546 524c12 14 34 14 48 0 14-12 14-34 0-48s-36-14-48 0c-14 14-14 36 0 48zM70 292c2 24 16 50 36 70 22 22 52 36 78 36 12 0 30-4 44-16 6-8 10-16 14-26 6-30-6-68-34-98-4-4-8-6-14-10-20-16-44-26-66-26-12 0-30 4-42 18-14 12-18 30-16 52z" />
<glyph unicode="&#x6f;" glyph-name="15-hielo" d="M512 642l-42-76c-2-2-4-4-6-4l-144-50c-6-4-14 0-16 6 0 4 0 6 2 10l34 76c2 4 4 6 8 6l150 48c6 2 12 0 14-6 2-4 2-8 0-10zM452 582l24 46-116-38-22-48zM330 486l-62 142c-2 4-2 6 0 10l32 72c2 2 2 4 4 4 0 0 2 0 2 0s0 2 0 2c0 0 2 0 2 0l22 8 36-14-28-8-10-4 54-114 128 40-26 48 16 22 36-72c2 0 2-2 2-2 2-6-2-12-8-14l-28-10-118-36c-10-26-22-50-32-74-4-6-10-8-16-6-2 2-4 4-6 6zM364 882l78 34c4 0 6 0 8 0l146-48c6-2 8-8 6-14 0-4-2-6-6-6l-74-42c-2-2-6-2-10 0l-148 54c-6 2-10 8-8 14 2 4 4 6 8 8zM448 892l-48-20 116-42 46 24zM604 854l-36-150c-2-4-4-6-6-8l-70-38c-2 0-4-2-6 0 0 0-2 0-2 0-2 0-2 0-2 0l-144 50c-6 2-10 8-8 14l26 150c0 0 2 0 2 2 2 6 8 8 14 6l144-52 70 38c6 4 14 2 16-4 2-2 2-6 2-8zM478 684l16 82 10 42-126 46-24-126zM546 714l28 120-46-26-20-92-6-24zM594 760l58 54c2 2 6 2 8 2l138 2c6 0 10-6 10-12 0-2 0-4-2-6l-52-58c-4-2-6-2-10-2l-142 2c-6 0-12 6-12 12 0 2 2 4 4 6zM664 794l-36-30 112-4 34 36zM808 808l12-140c0-4 0-6-2-8l-50-54c0 0-2-2-4-2 0 0 0 0-2 0 0 0-2 0-2 0h-22l-26 22h36l-8 74-4 40-122 2 8-50-20-14-12 74c0 0 0 0 0 2 0 6 6 10 12 10h26l112-4c18 18 34 36 50 54 4 4 10 4 16 0 2-2 2-4 2-6zM798 670c-2 38-6 74-8 112l-34-36c4-36 8-72 12-108zM664 484l-78-6c-2 0-6 0-8 2l-110 82c-4 4-6 10-2 16 2 2 4 4 8 4l76 12c2 2 6 0 8-2l112-90c4-2 6-10 2-14-2-2-4-4-8-4zM588 500l48 2-88 70-46-8zM466 576l76 120c0 2 4 4 6 4l72 12c2 0 4 0 4 0 2 0 2 0 2 0 0-2 0-2 0-2 2 0 2 0 2 0l110-86c4-2 6-8 2-14l-68-120c0-2 0-2 0-2-4-4-10-6-16-2l-108 86-72-12c-6 0-10 4-12 10 0 2 0 4 2 6zM624 686l-38-66-22-34 96-76 58 102zM556 680l-60-94 48 8 44 74 12 18zM166 646h692c2 0 2 0 4 0 20-2 34-18 32-34l-4-16h50c2 20 18 34 38 34 22 0 38-18 38-38v-114c0-22-16-38-38-38s-38 16-38 38v70l-60-12-94-412c-2-14-16-26-36-26h-332l-68 328h-88l68-328h-56c-20 0-36 12-38 26l-92 412-60 12v-70c0-22-16-38-38-38s-38 16-38 38v114c0 20 16 38 38 38 20 0 36-14 38-34h48l-2 16c-4 16 10 32 30 34 2 0 4 0 6 0zM284 56h458v-76h-458z" />
<glyph unicode="&#x70;" glyph-name="16-parking-noUsar" d="M2 926l46 30 42-30M504 180v-218h-150v652h230c46 0 84-4 118-16 32-10 60-26 82-44 20-20 36-42 46-68s16-54 16-84c0-32-6-62-16-90-10-26-26-50-48-70-22-18-48-34-82-46-32-10-72-16-116-16zM504 294h80c38 0 66 10 84 30 18 18 26 44 26 78 0 14-2 28-6 40-6 12-12 24-20 32-10 8-22 16-36 20-14 6-30 8-48 8h-80z" />
<glyph unicode="&#x71;" glyph-name="17-piscina" d="M312 106c18 0 36-2 54-4v42l258-22v-72c6 0 14 0 20-2 4 0 8 0 10 0 22 0 40 2 56 6v400c0 30 20 58 48 64 24 6 38 30 32 54-6 22-30 36-54 30-66-16-112-78-112-148v-68l-258 22v74c0 32 20 60 50 66 22 6 36 30 30 52s-28 36-50 30c-68-16-114-78-114-148v-376c4 0 10 0 16 0 4 0 10 0 14 0zM366 324l258-22v-96l-258 22zM142-2c2 0 2 0 4 2 2 0 6 0 16 2 14 2 34 2 54 2 18 0 40-2 66-6 24-2 52-8 84-14 34-8 76-18 120-32 48-14 92-22 134-22 2 0 2 0 4 0s4 0 6 0c30 0 58 4 80 10 110 28 150 106 154 114 2 6 2 12-2 16-2 2-6 4-8 4-4 0-6 0-8-4-2 0-2 0-2 0s0 0-2-2c0-2-4-4-8-8-6-4-18-14-36-22-18-10-48-20-88-26-16-2-34-4-56-4-4 0-8 0-12 0-6 0-10 0-16 2-42 2-88 10-134 24-44 14-88 22-126 28-20 2-38 4-54 4-4 0-10 0-14 0-6 0-12 0-16 0-102-4-144-40-146-42-4-4-6-10-4-16s6-10 10-10zM2 926l46 30 42-30" />
<glyph unicode="&#x72;" glyph-name="18-lavadora" d="M884 960h-744c-40 0-70-32-70-72v-880c0-40 30-72 70-72h744c40 0 70 32 70 72v880c0 40-30 72-70 72zM594 78c-26-8-54-12-82-12s-56 4-82 12c-118 36-204 144-204 274 0 158 128 286 286 286s286-128 286-286c0-130-86-238-204-274zM672 818c0-32-26-58-58-58s-58 26-58 58c0 32 26 56 58 56s56-24 58-56zM812 762c-4-2-10-2-14-2-32 0-58 26-58 58s26 56 58 56c32 0 56-24 56-56 0-28-16-50-42-56zM584 408c-18-20-44-32-72-32s-54 12-72 32c-18-20-44-32-72-32-26 0-50 10-68 28-4-16-6-34-6-52 0-120 98-220 218-220s218 100 218 220c0 18-2 36-6 52-18-18-42-28-68-28-28 0-54 12-72 32z" />
<glyph unicode="&#x73;" glyph-name="19-spa" d="M1002-38c0 18-14 32-32 36l-160 24c-14 4-30 10-40 22l-132 128c-22 20-52 28-80 22-194-46-346-54-494-6-22 8-46-8-46-30l-4-120c0-26 22-48 48-48h496l-24 20c-10 8-12 22-4 32 8 12 22 12 32 4l82-62c4-2 10-6 14-10l16-12c24-20 54-32 84-32h212c18 0 32 14 32 32zM374 320l10-2 160-44c12-4 26 2 32 14 8 16 2 32-12 40l-136 66-128 148c0 2-2 4-4 4-6 8-16 16-26 20-24 10-50-2-60-24l-108-260c-10-24 2-52 26-60 56-14 102-18 162-14 26 2 46 26 44 52l-8 118 40-48zM264 954c-32 18-80-6-108-54s-26-102 4-120c14-8 30-8 46-2-2-8-2-16-2-26 0-90 74-164 164-164s164 74 164 164c0 92-74 164-164 164-30 0-56-6-80-20 2 26-8 48-24 58zM994 272c0-88-70-160-158-160-86 0-158 72-158 160 0 86 72 158 158 158 88 0 158-72 158-158z" />
<glyph unicode="&#x74;" glyph-name="20-restaurante" d="M530 190c0-124 78-254 174-254s174 130 174 254c0 102-54 168-126 188l16 582h-126l16-582c-74-20-128-86-128-188zM454 640l-16 192c0 38-20 80-50 104v-232h-32v238c-14 0-20 0-34 0v-238h-40v238c-12 0-20 0-34 0v-238h-32v232c-32-24-50-66-50-104l-18-192c0-62 42-112 108-126l-18-578h128l-18 578c64 14 106 64 106 126z" />
<glyph unicode="&#x75;" glyph-name="21-piscina" d="M254 206c24-2 48-4 72-6v56l362-30v-100c10 0 18 0 28-2 4 0 10 0 14 0 30 0 56 4 78 6v558c0 44 28 82 68 92 32 8 50 42 42 74s-42 52-74 44c-92-26-156-110-156-210v-92l-362 28v104c0 46 30 84 70 94 32 8 50 40 44 70-8 32-40 52-72 44-92-24-158-108-158-208v-522c8 0 16 0 22 0 8 0 14 0 22 0zM326 508l362-30v-134l-362 30zM16 54c2 0 4 2 4 2 2 0 10 2 24 4 20 2 46 2 74 2 24 0 56-2 92-8 34-4 72-10 116-20 50-10 106-24 170-44 66-18 128-30 186-32 2 0 4 0 6 0s6 0 8 0c42 0 80 6 112 14 152 40 208 150 214 160 4 8 2 16-2 22-4 4-8 6-12 6-6 0-10-2-12-4 0-2 0-2 0-2-2 0-2 0-4-2s-6-6-12-10-26-20-48-32c-28-14-70-28-124-36-24-4-50-6-78-6-6 0-10 0-16 0-8 0-16 0-24 2-60 4-122 16-188 34-62 20-120 32-176 38-26 4-50 6-74 6-6 0-12 2-18 2-8 0-16-2-24-2-142-4-200-56-202-58-6-6-10-14-8-22s10-14 16-14z" />
<glyph unicode="&#x76;" glyph-name="22-silla-ruedas" d="M702 172c-40-88-128-150-230-150-140 0-252 114-252 252 0 108 66 198 162 236v82c-140-40-240-168-240-318 0-182 148-330 330-330 112 0 210 56 270 140zM876 128l-92 204c-6 22-26 40-52 42h-206v90h122c32 0 56 22 56 48s-24 46-56 46h-122v96c0 32-26 58-58 58-30 0-56-26-56-58v-334c0-2 0-4 0-6 2-30 26-52 54-52h228l84-182c12-28 46-40 74-26 26 14 38 46 24 74M572 854c0-58-46-104-104-104-56 0-102 46-102 104 0 56 46 102 102 102 58 0 104-46 104-102" />
<glyph unicode="&#x77;" glyph-name="23-serv-habitacion" d="M898 452h-772c-20 0-34-16-34-36s14-36 34-36h772c20 0 34 16 34 36s-14 36-34 36zM414 358c-14-4-16-16-14-30 18-12 60-42 100-62-34 56-50 102-86 92zM518 84h180c14 50 48 184 58 222 10 36-8 68-52 36-40-32-64-128-112-128-20 0-42 6-66 16-50 20-116 64-138 78-36 24-68 44-84 46-36 6-54-18-40-36 16-22 102-86 164-144 48-44 72-72 90-90zM538 246c8-2 36-12 64-8 0 0-4 118-42 120-44 2-26-96-24-110 2 0 2 0 2-2zM436 44l30-124h328l-30 124zM476 746c-62-38-106-136-106-250h322c0 100-34 188-84 234 92-38 158-128 158-234h66c0 164-124 300-286 316 16 12 26 30 26 50 0 34-26 60-60 60s-60-26-60-60c0-20 10-38 26-50-160-16-286-152-286-316h66c0 126 96 232 218 250z" />
<glyph unicode="&#x78;" glyph-name="24-spa" d="M768 412l-50-300-14-86-12-68c64 16 108 40 118 68h2l156 478c-26-38-100-70-200-92zM306 112l14-86 12-68c40-10 90-16 142-18v450c-80 2-154 10-218 22zM512 388c-2 0-6 0-8 0v-450c2 0 6 0 8 0 54 0 106 6 150 14l12 74 16 94 48 286c-68-10-144-18-226-18zM272 474c70 8 150 14 236 14 88 0 170-6 240-16 90 18 148 44 148 72 0 30-58 56-148 72-18 8-34 28-36 54-2 4-2 8-2 12 0 18 6 34 16 46 22 24 36 56 36 92 0 76-62 136-136 136-76 0-138-60-138-136 0-28 10-56 26-78 6-10 8-22 8-36 0-8 0-16-2-22-10-26-32-44-58-48-188-6-334-44-334-92 0-28 56-54 144-70zM628 880c22 0 40-18 40-42 0-22-18-40-40-40s-40 18-40 40c0 24 18 42 40 42zM278 102l-52 318c-86 20-146 50-170 84l156-478h2c8-22 40-42 86-58l-10 58z" />
<glyph unicode="&#x79;" glyph-name="25-spa" d="M960 154c-10 146-350 212-560 158-118-32-362-142-334-228 36-110 400-150 560-140 192 12 340 106 334 210zM64 510c12 128 312 194 496 150 102-26 314-118 288-194-32-98-356-140-494-134-168 8-298 88-290 178zM868 854c6-96-208-180-348-168-80 6-246 48-236 108 12 76 246 144 348 156 126 16 230-28 236-96z" />
<glyph unicode="&#x7a;" glyph-name="26-camarero" d="M436 340c0-4-4-6-8-6h-94c-4 0-8 2-8 6s4 8 8 8h40v68c-64 4-64 70-64 70v2l12 92c2 4 6 6 10 6 2 0 6-4 6-8l-14-92c0-6 4-56 56-56 54 0 58 50 58 56l-14 92c0 4 2 8 6 8s8-2 8-6l14-94c0 0-2-66-64-70v-68h40c4 0 8-4 8-8zM420 486c0-4-2-38-40-38-36 0-38 32-38 38l2 10h74zM854 816c0-76-64-140-140-140-78 0-140 64-140 140 0 78 62 140 140 140 76 0 140-62 140-140zM714 650c-92 0-166-74-166-166v-544h332v544c0 92-74 166-166 166zM714 348c-78 0-140 62-140 140 0 76 62 140 140 140 76 0 140-64 140-140 0-78-64-140-140-140zM784 586v-84l-48 24c-6-6-14-10-22-10-10 0-16 4-22 10l-48-24v84l48-24c6 6 12 10 22 10 8 0 16-4 22-10zM144 324h352v-10h-352z" />
<glyph unicode="&#x7b;" glyph-name="90-right" d="M750 448l-460-510-16 16 446 494-446 494 16 16z" />
<glyph unicode="&#x7c;" glyph-name="91-descarga" d="M544 160v352h-32v-352l-102 102-26-22 144-144 144 144-26 22zM640 864h-352c-36 0-64-28-64-64v-736c0-36 28-64 64-64h480c36 0 64 28 64 64v576zM640 816l150-176h-118c-16 0-32 16-32 32zM800 64c0-16-12-32-32-32h-480c-16 0-32 12-32 32v736c0 16 12 32 32 32h320v-160c0-36 28-64 64-64h128z" />
<glyph unicode="&#x7d;" glyph-name="92-right" d="M748 452l-456-514-16 14 408 500-408 492 16 14z" />
<glyph unicode="&#x7e;" glyph-name="93-right" d="M180 960l-46-44 526-504 46 46zM706 456l-48 46-546-520 50-46zM384 960l-46-44 526-504 48 46zM912 456l-50 46-544-520 48-46z" />
<glyph unicode="&#xe000;" glyph-name="95-right" d="M298 960c28 0 54-12 72-30v2l428-404c22-20 34-50 34-80s-12-60-34-80l-428-404v2c-18-18-44-30-72-30-58 0-106 50-106 110 0 32 14 60 34 80l342 322-342 322c-22 20-34 48-34 80 0 60 48 110 106 110z" />
<glyph unicode="&#xe001;" glyph-name="96-close" d="M1002 904l-56 56-444-446-446 446-56-56 446-446-446-444 56-56 446 446 444-446 56 56-446 444z" />
<glyph unicode="&#xe002;" glyph-name="97-left" d="M844-64l46 44-526 504-46-46zM318 440l48-46 544 520-48 46zM638-64l48 44-526 504-48-46zM112 440l48-46 546 520-48 46z" />
<glyph unicode="&#xe003;" glyph-name="98-new" d="M1004 498l-52 50 24 68c14 36-6 76-42 88l-40 16v42c0 38-30 68-68 68h-74l-30 66c-16 34-58 48-92 32l-40-18-30 30c-26 26-70 26-96 0l-52-50-68 24c-34 12-76-8-88-42l-14-42h-44c-38 0-68-30-68-68v-72l-66-32c-34-16-48-58-32-92l18-38-30-30c-12-14-20-32-20-50s8-36 20-48l52-52-24-68c-6-18-6-36 2-52 8-18 22-30 40-36l40-14v-44c0-38 30-68 68-68h74l30-66c16-32 58-48 92-32l38 18 32-30c12-12 30-20 48-20s36 8 48 20l52 52 68-24c36-14 76 6 88 42l14 40h44c38 0 68 30 68 68v74l66 30c34 16 48 58 32 92l-18 40 30 30c26 26 26 70 0 98zM960 290l-112-54v-124h-98l-32-94-118 42-88-88-70 70-88-44-54 114h-124v98l-94 32 42 118-88 88 70 70-42 88 112 54v124h98l32 94 118-42 88 88 70-70 88 44 54-114h124v-98l94-32-42-118 88-88-70-70zM322 492c0-32 2-60 6-88h-2c-10 24-22 50-34 72l-44 78h-56v-212h44v64c0 34 0 64-2 92 10-24 24-52 38-74l44-82h50v212h-42v-62zM456 432h78v38h-78v44h84v40h-132v-212h136v40h-88zM766 468c-4-26-8-50-12-74-4 24-8 46-12 70l-16 90h-52l-18-86c-4-26-10-52-14-76-4 22-8 50-12 74l-16 88h-52l50-212h54l20 92c4 20 8 40 12 64 2-24 6-44 10-64l18-92h52l54 212h-48z" />
<glyph unicode="&#xe004;" glyph-name="99-mundo" d="M512 960c-282 0-512-230-512-512s230-512 512-512c282 0 512 230 512 512s-230 512-512 512zM516-12c-252 0-458 206-458 458 0 120 48 230 126 312-4-20-4-40 4-62 32-78 20-38 50-116 32-78 82-44 118-52 36-6 54-26 66-30s46-20 52-60c4-40-10-38-32-58-22-18 4-42 0-74-4-30 46-12 108-54 64-44 20-58 8-82s-38-12-84-12c-46 0 0-28 0-28s18-22 40-18c24 4 56 8 80 16 22 6 54 26 98 34 42 8 92 110 144 140 50 32 22 60 22 90 0 32-26 0-54 0s-42 4-90 46c-46 42-34 28-74 52-42 24-86 16-104 16-20 0-90 8-142 42-50 36-86 62-70 86s0 0 32 0c32 0 72 6 86-12 4-6-6-26 0-30 12-14 60-12 72 0 10 6 6 26 10 42s-4 40 0 74c4 36 0 0 12 16s46 20 78 38c30 20 26 16 22 44s0 28 0 28c0 0-50 22-66 26-14 4-32 38-34 40 242-10 436-210 436-454 0-252-206-458-456-458z" />
<glyph unicode="&#xe005;" glyph-name="100-habitacion" d="M976 734l-462 222c0 0 0 0-2 0 0 0-2 2-4 2 0 0-2 0-2 0-2 2-4 2-4 2-2 0-4 0-6 0s-2 0-2 0c-2 0-4 0-6 0 0-2-2-2-4-2 0 0-2 0-4 0 0-2-2-2-2-2-2-2-4-2-4-2-2-2-2-2-4-2 0-2-2-2-2-4-2 0-2-2-4-2 0-2-2-2-2-4s-2-2-2-4c0 0-2-2-2-2 0-2 0-4-2-6 0 0 0-2 0-2 0-2 0-4-2-4 0-2 0-4 0-6v-130l-408-218c0 0 0 0 0-2-2 0-2 0-2 0-2 0-2-2-2-2-2 0-2 0-2-2-2 0-2 0-2-2-2 0-2 0-2-2-2 0-2 0-2-2-2 0-2 0-2-2 0 0-2-2-2-2s0-2-2-2c0-2 0-2 0-2 0-2 0-2-2-4 0 0 0-2 0-2 0-2 0-2 0-2 0-2-2-2-2-4 0 0 0-2 0-2 0-2 0-2 0-2s0-2 0-2v-282c0-22 20-42 42-42s42 20 42 42v24l358-226v-70c0-22 18-42 42-42 22 0 40 18 40 42v70l368 228v-16c0-24 20-42 42-42 24 0 42 18 42 42v436c0 16-10 30-24 38zM496 716l116-58-26-20-114 64zM466 148l-358 226v84l358-210zM508 320l-356 210 232 124 358-198zM666 594l30 22 174-86-44-26zM916 376l-368-228v100l300 172 68 40zM916 600l-378 188v64l378-184z" />
<glyph unicode="&#xe006;" glyph-name="101-regalo" d="M936 556v166c0 14-10 26-24 26h-230c24 12 34 30 34 50s-12 38-34 52c-20 10-50 16-84 16-48 0-90-32-102-76-14 44-56 76-104 76-34 0-62-6-84-16-22-14-34-32-34-52s12-38 34-50h-198c-14 0-24-12-24-26v-166c0-14 10-24 24-24h30v-490c0-14 12-26 26-26h690c14 0 26 12 26 26v490h30c14 0 24 10 24 24zM536 758c0 36 28 64 62 64 26 0 48-4 62-12 8-6 12-10 12-12 0-6-14-18-46-18-26 0-42-16-52-32h-40c2 4 2 6 2 10zM366 780c-34 0-48 12-48 18 0 2 4 6 12 12 14 8 36 12 62 12 34 0 64-28 64-64 0-4 0-6 0-10h-40c-10 16-24 32-50 32zM450 532l-84-134-14 36c-4 10-12 16-24 16h-46l46 82zM830 68h-638v458h74l-52-90c-4-8-4-18 0-26 6-6 14-12 22-12h76l26-66c4-10 12-16 20-16 10-2 20 2 24 12l126 198h2l126-198c6-10 14-14 24-12 10 0 18 6 22 16l26 66h74c10 0 18 4 22 12 6 8 6 18 0 26l-52 90h78zM738 450h-48c-10 0-20-6-24-16l-14-36-84 134h122zM886 582h-750v114h750z" />
<glyph unicode="&#xe007;" glyph-name="102-compartir" d="M362 448c0-4-2-6-2-10l368-184c30 26 70 44 116 44 100 0 180-82 180-182s-80-180-180-180c-100 0-182 80-182 180 0 4 2 8 2 12l-368 182c-30-26-70-42-116-42-100 0-180 80-180 180s80 180 180 180c46 0 86-16 116-42l368 182c0 4-2 8-2 12 0 100 82 180 182 180s180-80 180-180c0-100-80-182-180-182-46 0-86 18-116 44l-368-184c0-4 2-6 2-10z" />
<glyph unicode="&#xe008;" glyph-name="103-check-in" d="M90 804l-2 44h46v-44h88v44h46v-44h88v44h44v-44h90l2 44h42v-44h90v44h44v-44h88v-400h-44v178h-668v-490h668v178h44v-222h-756v756zM44 626h668v134h-44v-44h-44v44h-90v-44h-44v44h-90v-44h-44v44h-88v-44h-46v44h-88v-44h-44v44h-46zM846 180v-44l178 178v44l-178 180v-46l134-134h-446v-44h446z" />
<glyph unicode="&#xe009;" glyph-name="104-check-out" d="M922 858v50h-52v-50h-102v50h-52v-50h-102v50h-50v-50h-104l-2 50h-48v-50h-102v50h-52v-50h-102v-462h50v206h768v-564h-768v206h-50v-256h870v870zM972 652h-768v154h52v-50h52v50h102v-50h50v50h104v-50h50v50h102v-50h52v50h102v-50h52v50h50zM358 140v-50l206 204v52l-206 204v-50l154-154h-512v-52h512z" />
<glyph unicode="&#xe00a;" glyph-name="105-check" d="M512 960c-282 0-512-230-512-512s230-512 512-512c282 0 512 230 512 512s-230 512-512 512zM426 234l-212 214 42 42 170-170 342 342 42-44z" />
<glyph unicode="&#xe00b;" glyph-name="106-book" d="M828 774l-52 4v110c0 6-2 10-6 12-2 4-8 6-12 4l-522-96c-8-2-14-4-20-10s-10-14-10-24v-714c0-16 14-32 32-32l586-32c2 0 2 0 2 0 8 0 18 2 24 8s10 14 10 24v714c0 18-14 32-32 32zM744 780l-370 20 370 68zM588 724l94-6v-246l-34 34c-6 6-16 6-22 2l-38-26zM794 62l-522 30v648l282-16v-274c0-6 4-12 10-16 6-2 12-2 18 2l52 38 52-52c4-4 8-6 12-6 2 0 4 2 6 2 6 2 10 8 10 16v282l80-4z" />
<glyph unicode="&#xe00c;" glyph-name="107-recepcion" d="M914 164h-786c-14 0-26-12-26-28 0-14 12-26 26-26h786c14 0 26 12 26 26 0 16-12 28-26 28zM548 688v54h52c14 0 26 12 26 26s-12 26-26 26h-158c-14 0-26-12-26-26s12-26 26-26h52c0 0 0-56 0-54-218-12-392-196-392-420 0-22 0-12 0-26s12-26 26-26h786c14 0 26 12 26 26s0 4 0 26c0 224-174 408-392 420zM154 268c0 204 164 368 366 368 204 0 368-164 368-368z" />
<glyph unicode="&#xe00d;" glyph-name="108-" d="M390 416c-24-32-48-64-76-94-68-68-156-86-250-82-86 4-84-124 0-128 178-10 304 66 404 192-16 22-32 42-46 62-10 18-22 34-32 50zM562 518c8-14 18-26 26-40 18 22 36 44 56 64 50 50 108 72 172 78-4-6-8-10-12-16-24-26-28-64 0-90 24-22 70-26 92 0 36 42 70 84 106 126 24 22 32 60 4 90l-120 124c-58 62-150-30-92-90l14-16c-64-4-126-20-184-58-44-26-80-62-112-100 6-8 14-18 20-26 10-16 20-30 30-46zM896 382c-10 12-26 18-44 18s-36-6-48-18c-28-26-24-64 0-90 4-6 8-10 12-16-64 6-122 28-172 78-30 30-54 62-76 94s-44 64-66 98c-4 6-8 12-12 18-98 136-222 222-398 222-10 0-18-2-28-2-84-4-86-128-4-128 2 0 2 0 4 0 8 0 18 2 28 2 84 0 162-22 222-84 38-38 68-82 96-126 14-20 28-42 42-62 12-18 24-36 38-54 38-48 80-94 134-128 58-36 120-52 184-56l-14-16c-44-46 0-110 48-110 16 0 32 6 44 20l120 124c28 30 20 68-4 90-36 42-70 84-106 126z" />
<glyph unicode="&#xe00e;" glyph-name="109-youtube" d="M920 430c-4 24-14 42-32 58-16 14-36 24-58 26-70 8-176 12-318 12s-248-4-316-12c-24-2-44-12-60-26-16-16-28-34-32-58-10-44-16-110-16-200s6-156 16-200c4-22 14-40 32-56 16-14 36-24 58-26 70-8 176-12 318-12s248 4 318 12c22 2 40 12 58 26 16 16 28 34 32 56 10 46 16 112 16 200 0 92-6 158-16 200zM330 374h-62v-326h-56v326h-60v52h178zM484 48h-50v30c-20-22-40-34-58-34s-30 8-34 22c-2 8-4 22-4 40v224h50v-208c0-12 0-18 0-20 2-8 6-12 14-12 10 0 20 8 32 24v216h50zM680 132c0-28-2-46-6-56-6-22-20-32-40-32s-36 10-54 32v-28h-50v378h50v-124c16 22 34 32 54 32s34-10 40-32c4-10 6-30 6-56zM872 180h-102v-50c0-26 8-40 26-40 12 0 20 8 24 20 0 4 0 16 0 36h52v-8c0-18 0-30 0-32-2-12-6-22-12-32-14-20-36-30-62-30s-48 10-62 30c-12 14-16 36-16 66v98c0 30 4 52 16 66 14 20 34 30 60 30s46-10 60-30c12-14 16-36 16-66zM606 288c-8 0-18-4-26-14v-172c8-8 18-12 26-12 14 0 22 14 22 38v122c0 24-8 38-22 38zM796 288c-18 0-26-14-26-40v-26h52v26c0 26-10 40-26 40zM296 732v-154h58v154l70 228h-58l-40-150-40 150h-62c12-32 24-68 38-106 18-54 30-94 34-122zM500 574c26 0 46 8 60 28 12 14 16 36 16 68v100c0 30-4 52-16 66-14 20-34 30-60 30s-46-10-60-30c-10-14-16-36-16-66v-100c0-30 6-54 16-68 14-20 34-28 60-28zM476 780c0 26 8 40 24 40s24-14 24-40v-120c0-26-8-40-24-40s-24 14-24 40zM658 574c18 0 38 10 58 34v-30h52v284h-52v-218c-12-16-22-24-32-24-8 0-12 4-12 12 0 2 0 8 0 20v210h-54v-224c0-20 2-34 6-44 4-14 16-20 34-20z" />
<glyph unicode="&#xe00f;" glyph-name="110-top" d="M0 218l44-46 504 526-46 46zM504 744l-46-48 520-544 46 48z" />
<glyph unicode="&#xe010;" glyph-name="111-twitter" d="M892.193 960h173.817l-379.668-433.756 446.359-590.244h-349.735l-273.592 358.137-313.502-358.137h-173.292l405.924 464.213-428.505 559.787h358.663l247.335-327.155 286.195 327.155zM831.278 39.975h96.098l-621.227 821.301h-103.45l628.578-821.301z" />
<glyph unicode="&#xe011;" glyph-name="112-top" d="M62 66l38-42 444 464-40 42zM504 530l-40-44 460-480 40 42zM62 246l38-42 444 464-40 42zM504 710l-40-42 460-482 40 44zM0 890h1024v-60h-1024z" />
<glyph unicode="&#xe012;" glyph-name="113-spa" d="M1020 276c-18 24-40 44-64 62-16 10-32 22-50 30 28 42 46 88 52 136 2 10-4 20-14 24-26 10-56 18-84 22-20 2-40 2-60 0 4 50-4 100-22 144-4 10-14 16-24 14-30-4-58-12-84-24-18-8-36-16-52-28-22 44-54 82-92 112-8 8-20 8-28 2-38-30-70-70-92-114-16 12-34 20-52 28-26 12-54 20-84 24-10 2-20-4-24-14-18-44-26-94-22-142-20 0-40 0-60-2-28-4-58-12-84-22-10-4-16-14-14-24 6-48 24-94 52-136-18-8-34-20-50-30-24-18-46-38-64-62-6-8-6-20 2-28 30-40 70-72 116-94 44-20 94-32 146-32s100 12 144 32c38 18 72 44 100 74 28-30 62-56 100-74 44-20 92-32 144-32s102 12 146 32c46 22 86 54 116 94 8 8 8 20 2 28zM794 506c20 2 40 2 60 0 20-4 38-8 58-14-18-80-68-150-140-190-38-22-82-36-124-38-16-2-32-2-50 0 20 8 40 18 56 30 72 50 124 126 140 212zM112 492c20 6 38 10 58 12 20 4 40 4 60 2 16-86 68-162 140-212 16-12 36-22 56-30-18-2-34-2-50 0-42 2-86 16-124 38-72 40-122 110-140 190zM394 194c-38-18-82-28-126-28-46 0-90 10-128 28-34 18-64 40-88 68 12 14 26 28 42 40s34 22 52 30c22-26 52-50 84-70 44-26 94-40 142-44 22 0 44 0 64 2-14-10-28-18-42-26zM394 332c-66 44-112 116-124 196v2c0 6-2 14-2 20-2 38 2 76 14 112 18-4 38-10 54-18 18-8 36-18 52-30-10-34-16-70-16-106 0-52 12-102 32-146 10-20 22-38 34-54-16 6-30 14-44 24zM512 292c-28 24-50 54-68 90-18 38-28 80-28 126 0 44 10 88 28 126 18 34 40 64 68 90 28-26 50-56 68-90 18-38 28-82 28-126 0-46-10-88-28-126-18-36-40-66-68-90zM620 362c20 44 32 94 32 146 0 36-6 72-16 106 16 12 32 22 52 30 16 8 36 14 54 18 12-36 16-74 14-112 0-6-2-14-2-20v-2c-12-80-58-152-124-196-14-10-28-18-44-24 12 16 24 34 34 54zM884 194c-40-18-82-28-128-28-44 0-88 10-126 28-14 8-28 16-42 26 20-2 42-2 64 0 48 2 98 16 142 42 32 20 62 44 84 70 18-8 36-18 52-30s30-26 42-40c-24-28-54-50-88-68z" />
<glyph unicode="&#xe013;" glyph-name="untitled-font-2-bottom" d="M0 698l44 46 504-526-46-46zM504 152l-46 48 520 544 46-48z" />
<glyph unicode="&#xe014;" glyph-name="115-book" d="M178 226c116-2 218-20 292-50 0-2 2-2 4-2s4 0 4 2c4 2 6 6 6 8v562c0 4-4 8-8 10l-294 118c-2 2-6 0-8-2-4-2-6-4-6-8v-628c0-6 6-10 10-10zM1022 774c-4 2-6 2-10 2l-104-32c-4 0-8-4-8-10v-542c0 0 2-8-8-8s-16 0-16 0c-84 0-240-8-342-68l-20-12-20 12c-102 60-258 68-342 68 0 0-16 0-22 0-4 0-2 4-2 4v546c0 6-4 10-8 10l-104 32c-4 0-6 0-10-2-2-2-4-4-4-8v-656c0-2 2-6 4-8s4-2 8-2c30 2 80 6 134 6 120 0 216-18 278-50 10-6 64-34 88-34s78 28 88 34c62 32 158 50 278 50 56 0 104-4 134-6 4 0 6 0 8 2s4 6 4 8v656c0 4-2 6-4 8zM550 176c2-2 2-2 6-2 0 0 2 0 2 2 76 30 176 48 292 50 4 0 10 4 10 10v628c0 4-2 6-6 8-2 2-6 4-8 2l-294-118c-4-2-8-6-8-10v-562c0-2 2-6 6-8z" />
<glyph unicode="&#xe015;" glyph-name="116-sobre" d="M978 810h-932c-26 0-46-20-46-44v-636c0-24 20-44 46-44h932c26 0 46 20 46 44v636c0 24-20 44-46 44zM92 672l270-178-270-282zM512 504l-326 216h652zM400 468l86-56c8-6 18-8 26-8 10 0 18 2 26 8l86 56 280-292h-784zM662 494l270 178v-460z" />
<glyph unicode="&#xe016;" glyph-name="117-facebook" d="M392 762c0-26 0-142 0-142h-98v-172h98v-512h202v512h136c0 0 12 82 18 174-18 0-154 0-154 0s0 100 0 118c0 16 22 40 44 40s68 0 110 0c0 24 0 106 0 180-56 0-120 0-148 0-212 0-208-172-208-198z" />
<glyph unicode="&#xe017;" glyph-name="118-corazon" d="M94 434c0-2 0-2 0-2l388-412c2-4 6-6 10-6s8 2 12 4l422 410c0 0 2 2 2 4 0 0 2 0 2 2 48 48 74 114 74 182 0 146-118 264-264 264-94 0-182-50-228-134-46 84-134 134-230 134-144 0-262-118-262-264 0-68 26-134 74-182z" />
<glyph unicode="&#xe018;" glyph-name="119-google" d="M538 378l-46 36c-14 12-34 26-34 56 0 28 20 46 36 64 54 42 110 88 110 184 0 98-62 150-92 176h80l84 52h-256c-70 0-170-16-244-78-56-48-82-114-82-174 0-100 76-204 214-204 12 0 28 2 42 2-6-14-14-28-14-50 0-40 22-64 40-88-58-4-168-10-248-60-76-46-100-112-100-158 0-96 90-186 278-186 224 0 342 124 342 246 0 88-52 134-110 182zM368 526c-110 0-160 146-160 232 0 34 6 70 28 96 20 26 56 44 90 44 108 0 164-146 164-240 0-24-4-64-34-94-20-22-54-38-88-38zM370 4c-138 0-228 66-228 158 0 94 84 124 112 134 54 18 124 22 136 22s20 0 30-2c98-70 140-106 140-172 0-80-66-140-190-140zM866 528v130h-64v-130h-130v-64h130v-130h64v130h130v64z" />
<glyph unicode="&#xe019;" glyph-name="120-lupa" d="M1002 70l-212 212c52 72 76 154 76 244 0 60-10 116-34 170-22 52-54 98-92 138-38 38-84 70-138 92s-110 34-168 34c-60 0-116-12-170-34-52-22-98-54-138-92-38-40-70-86-92-138-22-54-34-110-34-170 0-58 12-114 34-168s54-100 92-138c40-38 86-70 138-92 54-24 110-34 170-34 90 0 172 24 244 76l212-210c14-16 34-24 56-24 20 0 40 8 54 24 16 14 24 34 24 54 0 22-8 40-22 56zM628 332c-54-54-118-80-194-80s-142 26-196 80c-54 54-80 118-80 194s26 142 80 196c54 54 120 80 196 80s140-26 194-80c54-54 80-120 80-196s-26-140-80-194z" />
<glyph unicode="&#xe01a;" glyph-name="121-mapa" d="M512 960c-146 0-312-134-312-304 0-158 256-664 284-698l10-14c4-4 12-8 18-8s14 4 18 8l10 14c30 40 284 542 284 698 0 168-140 304-312 304zM512 504c-78 0-142 64-142 144 0 78 64 142 142 142s142-64 142-142c0-80-64-144-142-144z" />
<glyph unicode="&#xe01b;" glyph-name="217-filtro" d="M0 950v-34l410-408v-546l238 170v376l376 408v34zM614 166l-170-136v478h170zM614 542h-170l-376 374h888z" />
<glyph unicode="&#xe01c;" glyph-name="123-trofeo" d="M98 374c0 0 8 40-24 74s-72 34-72 34c0 0-10-46 22-80 30-32 74-28 74-28zM168 382c0 0 38 22 46 68 6 46-28 78-28 78s-34-24-40-72c-8-48 22-74 22-74zM194 336c-2-48 32-70 32-70s34 26 36 74c0 46-38 72-38 72s-30-28-30-76zM296 346c0 0-28-32-24-80 4-46 40-66 40-66s32 30 28 76c-4 46-44 70-44 70zM418 142c0 0 22 38 6 82-16 42-62 54-62 54s-16-38 0-82c18-46 56-54 56-54zM112 476c0 0 30 28 22 76-8 46-42 70-42 70s-34-34-26-80c8-46 46-66 46-66zM136 284c0 0-2 42-42 64-42 24-80 12-80 12s4-48 44-70c40-24 78-6 78-6zM206 206c0 0-12 38-56 52s-80-8-80-8c0 0 14-46 58-58s78 14 78 14zM284 150c0 0-24 34-70 32s-74-32-74-32c0 0 28-40 72-38 46 2 72 38 72 38zM316 126c-46-6-70-40-70-40s32-36 76-28c46 6 66 44 66 44s-26 32-72 24zM128 454h-22c0-2-4-250 360-358l6 20c-346 106-344 328-344 338zM926 374c0 0 44-4 74 28 32 34 22 80 22 80s-40 0-72-34c-32-34-24-74-24-74zM810 450c8-46 46-68 46-68s30 26 22 74c-6 48-40 72-40 72s-34-32-28-78zM762 338c2-46 36-72 36-72s34 22 32 70c0 48-30 76-30 76s-38-26-38-74zM684 276c-4-46 28-76 28-76s36 18 40 66c4 48-24 80-24 80s-40-24-44-70zM600 224c-16-44 6-82 6-82s38 8 56 52c16 46 0 84 0 84s-46-12-62-54zM958 542c8 46-26 78-26 78s-34-22-42-70c-8-46 22-74 22-74s38 20 46 66zM930 348c-40-22-42-64-42-64s38-18 78 4c40 24 44 72 44 72s-38 12-80-12zM874 258c-44-14-56-52-56-52s34-28 78-14c44 12 58 58 58 58s-36 20-80 8zM810 182c-46 2-70-32-70-32s26-36 72-38c44-2 72 38 72 38s-28 30-74 32zM708 126c-46 8-72-24-72-24s20-38 66-46c44-6 76 30 76 30s-24 34-70 40zM918 454h-22c0-10 2-232-344-338l6-22c364 110 360 358 360 360zM518 846l42-120 130-4-102-76 36-122-106 72-106-72 36 122-102 76 128 4z" />
<glyph unicode="&#xe01d;" glyph-name="124-menos" d="M512 960c-282 0-512-230-512-512s230-512 512-512c282 0 512 230 512 512s-230 512-512 512zM782 422h-540v52h540z" />
<glyph unicode="&#xe01e;" glyph-name="125-" d="M74 960h146c40 0 72-32 72-74v-146c0-40-32-72-72-72h-146c-42 0-74 32-74 72v146c0 42 32 74 74 74zM74 594h146c40 0 72-32 72-72v-148c0-40-32-72-72-72h-146c-42 0-74 32-74 72v148c0 40 32 72 74 72zM74 228h146c40 0 72-32 72-72v-146c0-42-32-74-72-74h-146c-42 0-74 32-74 74v146c0 40 32 72 74 72zM438 960h148c40 0 72-32 72-74v-146c0-40-32-72-72-72h-148c-40 0-72 32-72 72v146c0 42 32 74 72 74zM438 594h148c40 0 72-32 72-72v-148c0-40-32-72-72-72h-148c-40 0-72 32-72 72v148c0 40 32 72 72 72zM438 228h148c40 0 72-32 72-72v-146c0-42-32-74-72-74h-148c-40 0-72 32-72 74v146c0 40 32 72 72 72zM804 960h146c42 0 74-32 74-74v-146c0-40-32-72-74-72h-146c-40 0-72 32-72 72v146c0 42 32 74 72 74zM804 594h146c42 0 74-32 74-72v-148c0-40-32-72-74-72h-146c-40 0-72 32-72 72v148c0 40 32 72 72 72zM804 228h146c42 0 74-32 74-72v-146c0-42-32-74-74-74h-146c-40 0-72 32-72 74v146c0 40 32 72 72 72z" />
<glyph unicode="&#xe01f;" glyph-name="126-corazon" d="M512-12c-6 0-12 4-16 8l-368 372c-82 84-128 182-128 278 0 156 104 262 258 262 132 0 184-60 254-142 70 82 122 142 254 142 154 0 258-106 258-262 0-96-46-194-128-278l-368-372c-4-4-10-8-16-8zM258 862c-130 0-214-84-214-216 0-84 42-172 116-246l352-358 352 358c74 74 116 162 116 246 0 132-84 216-214 216-114 0-156-48-224-130l-14-14c-4-6-10-8-16-8s-12 2-16 8l-14 14c-68 82-110 130-224 130z" />
<glyph unicode="&#xe020;" glyph-name="127-close" d="M32 916l42 44 470-492-40-44zM504 384l-44 44 488 510 44-44zM32-20l42-44 470 492-40 44zM504 512l-44-44 488-510 44 44z" />
<glyph unicode="&#xe021;" glyph-name="128-digicert" d="M576 398h-22v102h22zM696 498l-6-20c-6 4-14 4-24 4-12 0-20-2-28-8-6-6-10-14-8-24 0-10 2-18 10-24 6-6 16-10 26-10 8 0 18 2 24 6l6-20c-10-4-22-6-36-6-18 0-34 6-46 16-10 8-16 22-16 36 0 16 6 30 18 40s28 14 50 14c10 0 20 0 30-4zM436 450c0-10 2-20 8-26 6-8 16-10 26-10 8 0 14 0 20 4s10 8 12 14c0 4 2 6 2 10v18c0 4-2 6-2 8-2 6-6 10-10 14-6 4-14 6-20 6-12 0-20-4-26-10-8-8-10-16-10-28zM526 500c0-6 0-16 0-28v-58c0-12-2-22-4-28-4-8-8-14-14-18-10-8-26-12-44-12-8 0-14 0-22 2-8 0-14 4-18 6l4 14c10-6 22-8 36-8 12 0 22 2 28 8 8 6 12 14 12 28v10c-4-4-10-8-16-12s-14-4-24-4c-14 0-26 4-36 14-10 8-16 20-16 34 0 18 6 30 18 40 10 10 22 14 38 14 10 0 18-2 24-6 6-2 10-6 14-12v16zM556 536c2 2 6 4 10 4s6-2 10-4c2-2 2-4 2-8 0-2 0-6-2-8-4-2-6-2-10-2h-2c-4 0-6 0-8 2-4 2-4 6-4 8 0 4 0 6 4 8zM836 500h26l2-18c4 6 8 12 14 16s14 4 20 4c2 0 6 0 8 0v-24c-4 0-6 0-10 0-6 0-14 0-18-4s-8-8-10-14c0-2 0-6 0-8v-54h-32v70c0 14 0 26 0 32zM770 416c12 0 24 2 34 4l6-16c-12-6-28-8-44-8-18 0-34 6-46 14-10 10-16 22-16 38s4 28 14 38c12 12 26 16 46 16 18 0 32-4 40-16 8-8 12-20 12-32 0-4 0-8 0-12h-82c0-8 4-14 12-20 6-4 14-6 24-6zM740 476c-4-4-6-10-6-16h54c0 6-2 12-6 16-4 6-12 10-20 10s-16-4-22-10zM392 398h-24v102h24zM380 540c4 0 8-2 10-4s4-4 4-8c0-2-2-6-4-8s-6-2-10-2c-4 0-8 0-10 2s-4 6-4 8c0 4 2 6 4 8s6 4 10 4zM224 448c0 16 6 30 16 40 12 10 24 14 40 14 8 0 16-2 22-4 6-4 10-6 14-10v60h22v-124c0-10 0-20 2-26h-20l-2 18c-4-6-8-10-16-14s-16-6-26-6c-14 0-26 6-36 14-10 10-16 22-16 38zM248 450c0-12 2-20 8-28 6-6 16-10 26-10 8 0 16 2 22 6s10 8 12 16c0 2 0 4 0 8v16c0 4 0 6 0 8-2 6-6 12-12 16s-12 6-20 6c-12 0-20-4-28-12-6-6-8-16-8-26zM152 504c4 0 8 0 16-2-12 8-26 12-44 14-12 0-26-2-40-10-10-4-22-12-36-22-4 2-6 4-6 10 2 8 2 12 2 16-10-14-14-28-14-48 0-12 6-26 16-42l20-20c-2-4-8-6-14-6 0 0-6 2-16 2 16-8 32-14 52-12 14 0 30 4 46 14l22 18c4-4 6-8 6-12 0-6 0-10-2-14 10 14 16 30 14 50-2 10-6 22-14 32-10 12-16 22-22 26 4 4 8 6 14 6zM174 528c-10 0-16-2-18-8 6-8 16-20 30-38 10-16 18-30 18-44 4-30-4-54-18-74 2 6 2 14 2 20-2 8-4 14-8 18l-32-24c-24-14-44-22-66-22-28 0-52 6-72 18 12-2 20-2 22-2 10 0 16 2 20 8l-28 30c-16 20-24 40-24 58 0 28 6 50 22 68 0-4-2-12-6-22 0-8 4-14 10-16 20 16 36 26 50 34 20 8 40 14 58 14 24-2 44-10 62-20-10 2-18 2-22 2zM992 482h-28v-46c0-6 0-10 2-14 4-2 8-4 14-4 4 0 8 0 12 0v-18c-6-2-14-4-22-4-12 0-22 4-28 10-6 4-10 14-10 28v48h-16v18h16v20l32 6v-26h28zM1004 544c-4 0-8 0-10-2-4-4-4-6-4-10s0-6 4-10c2-2 6-2 10-2s6 0 10 2c2 4 4 6 4 10s-2 6-4 10c-4 2-6 2-10 2zM992 544c2 2 6 4 12 4 4 0 8-2 12-4 4-4 4-8 4-12s0-8-4-12c-4-2-8-4-12-4-6 0-10 2-12 4-4 4-6 8-6 12s2 8 6 12zM1000 534h2c2 0 4 0 4 0s2 0 2 2c0 0-2 2-2 2s-2 0-4 0h-2zM1008 540c2 0 2-2 2-4s0-4-2-4l-2-2c2 0 2-2 4-4l2-4h-4l-2 4c-2 2-2 4-4 4 0 0 0 0-2 0v-8h-4v20h8c2 0 2 0 4-2z" />
<glyph unicode="&#xe022;" glyph-name="129-lupa" d="M622 188c0 0 12 8 22-2 54-54 212-212 212-212 42-42 100-52 138-14l6 6c38 38 28 96-14 138 0 0-158 160-212 212-10 10-2 22-2 22 96 158 74 364-62 500-162 162-426 162-588 0s-162-426 0-588c136-136 342-158 500-62zM198 328c-120 120-120 314 0 434s314 120 434 0c120-120 120-314 0-434s-314-120-434 0zM566 596c-40 94-148 136-242 98-20-10-46 0-56 22-8 22 2 48 24 56 136 58 296-6 354-144 8-20-2-46-24-56-4-2-10-2-16-2-16 0-32 10-40 26z" />
<glyph unicode="&#xe023;" glyph-name="72-telef" d="M856 222c-14 8-192 104-208 114-16 8-34 6-44-6-12-12-72-72-72-72-26-26-48-34-80-16-36 26-74 54-108 88-34 36-62 72-88 110-20 30-10 52 16 78 0 0 60 60 72 72 10 10 14 28 6 44-10 16-108 194-114 208-8 14-24 26-44 24-52-6-98-24-132-58-122-122-52-394 158-604 210-208 480-280 604-158 34 36 52 80 58 134 2 18-10 34-24 42M762 432l76 10c-4 82-40 164-112 220-70 56-160 72-242 54l10-76c62 16 130 4 186-38 54-42 82-106 82-170M462 902l10-80c108 20 226-4 320-76 94-74 146-182 152-292l80 10c-8 132-70 258-182 346-112 86-252 116-380 92" />
<glyph unicode="&#xe024;" glyph-name="131-calendario" d="M250 722h14c24 0 42 18 42 40v156c0 22-18 40-42 40h-14c-22 0-40-18-40-40v-156c0-22 18-40 40-40zM768 722h14c22 0 40 18 40 42v154c0 24-18 42-40 42h-14c-22 0-42-18-42-42v-154c0-24 20-42 42-42zM958 876h-102v-124c0-40-34-64-74-64h-14c-42 0-74 34-74 76v112h-356v-114c0-40-32-74-74-74h-14c-40 0-72 34-72 74v114h-112c-36 0-66-30-66-68v-804c0-38 30-68 66-68h892c36 0 66 30 66 68v804c0 38-30 68-66 68zM958 4h-892v608h892zM546 408h118c4 0 8 4 8 8v104c0 4-4 8-8 8h-118c-4 0-8-4-8-8v-104c0-4 4-8 8-8zM738 408h118c4 0 8 4 8 8v104c0 4-4 8-8 8h-118c-4 0-8-4-8-8v-104c0-4 4-8 8-8zM162 238h118c4 0 8 4 8 8v104c0 4-4 8-8 8h-118c-4 0-8-4-8-8v-104c0-4 4-8 8-8zM354 238h118c4 0 8 4 8 8v104c0 4-4 8-8 8h-118c-4 0-8-4-8-8v-104c0-4 4-8 8-8zM546 238h118c4 0 8 4 8 8v104c0 4-4 8-8 8h-118c-4 0-8-4-8-8v-104c0-4 4-8 8-8zM738 238h118c4 0 8 4 8 8v104c0 4-4 8-8 8h-118c-4 0-8-4-8-8v-104c0-4 4-8 8-8zM280 188h-118c-4 0-8-2-8-8v-104c0-4 4-8 8-8h118c4 0 8 4 8 8v104c0 4-4 8-8 8zM472 188h-118c-4 0-8-2-8-8v-104c0-4 4-8 8-8h118c4 0 8 4 8 8v104c0 4-4 8-8 8zM664 188h-118c-4 0-8-2-8-8v-104c0-4 4-8 8-8h118c4 0 8 4 8 8v104c0 4-4 8-8 8zM856 188h-118c-4 0-8-2-8-8v-104c0-4 4-8 8-8h118c4 0 8 4 8 8v104c0 4-4 8-8 8z" />
<glyph unicode="&#xe025;" glyph-name="132-trofeo" d="M1004 828c-22 34-64 52-112 50-42-2-86-24-122-44 0 2 0 2 0 2 0 42-32 74-74 74 0 0-184 0-184 0s-184 0-184 0c-42 0-74-32-74-74 0 0 0-2 0-2-36 20-80 42-122 44-48 2-90-18-112-50-30-44-26-104 10-180 54-116 180-202 242-240 32-70 94-122 178-140 2-2 2-6 2-10 0-16 0-72 0-112h-50c-26 0-48-16-48-36v-4h-16c-34 0-60-28-60-60v-60c144 0 306 0 468 0v60c0 32-26 60-60 60h-16v4c0 20-22 36-48 36h-50c0 40 0 96 0 112 0 4 0 8 2 10 84 18 146 70 178 140 62 38 188 124 242 240 36 76 40 138 10 180zM90 676c-24 52-30 94-16 114 14 22 48 22 56 22 34-2 90-32 124-56 0-88-2-254-2-256-58 42-128 102-162 176zM934 676c-34-74-104-134-162-176 0 2-2 168-2 256 36 24 90 54 124 56 8 0 42 0 56-20 14-22 8-64-16-116z" />
<glyph unicode="&#xe026;" glyph-name="133-bebes" d="M512 960c-278 0-504-226-504-502 0-240 168-442 394-492-26 26-44 58-52 96-156 64-268 216-268 396 0 172 104 320 252 388-6-34 20-72 48-106 26-32 16-54-4-72-6-4-10-14-6-20 2-8 10-14 18-14 256-4 320 142 334 194 130-72 218-212 218-370 0-170-100-316-244-386-4-38-20-72-44-98 210 62 362 254 362 484 0 276-226 502-504 502zM378 526c30 0 56-26 56-56 0-32-26-58-56-58-32 0-58 26-58 58 0 30 26 56 58 56zM642 526c32 0 58-26 58-56 0-32-26-58-58-58-30 0-56 26-56 58 0 30 26 56 56 56zM356 146c14 40 40 74 76 96 4 46 42 84 88 84s82-36 88-80c38-20 70-58 84-100 22 24 36 52 36 82 0 82-92 146-204 146s-204-64-204-146c0-30 14-58 36-82zM544 152c-8 2-14 2-20 2-8 0-16 0-22-4 6 0 6 0 0 0-24-8-40-32-40-58 0 0 0-2 0-2 20-6 40-8 62-8s42 2 62 8c0 0 0 2 0 2 0 28-18 52-42 60zM522 300c-32 0-60-20-70-48 22 10 46 16 72 16 24 0 46-4 66-14-10 26-38 46-68 46zM524 250c-88 0-158-72-158-158s70-156 158-156c86 0 156 70 156 156s-70 158-156 158zM524 12c-46 0-82 36-82 80 0 46 36 82 82 82 44 0 80-36 80-82 0-44-36-80-80-80z" />
<glyph unicode="&#xe027;" glyph-name="134-email" d="M512 944l-502-382v-610h1004v610zM374 672c14 26 34 48 60 62s56 20 88 20c28 0 54-6 74-16 22-12 40-28 50-48 12-20 18-44 18-68 0-28-8-54-26-78-22-30-50-44-84-44-10 0-16 0-22 4-4 4-8 8-8 14-14-12-28-18-46-18s-34 6-46 18c-12 14-18 32-18 52 0 28 8 52 22 74 18 26 40 40 68 40 20 0 34-8 44-22l4 18h44l-24-122c-2-8-4-14-4-16s2-4 2-6c2-2 4-2 6-2 4 0 12 4 20 10 12 8 20 20 28 34 6 16 10 30 10 46 0 28-10 52-30 70-20 20-48 28-82 28-30 0-56-6-78-18-20-12-36-30-46-54-12-22-16-46-16-70s6-46 18-66c12-20 28-34 50-44 20-8 46-14 72-14 28 0 50 4 70 12 18 8 34 20 46 34h34c-10-22-28-40-50-54-26-16-58-22-96-22s-70 6-96 18c-26 14-46 32-60 56-12 26-18 52-18 82 0 32 6 62 22 90zM46 550l370-256-370-292zM74-18l438 348 438-348zM978 2l-370 292 370 256zM530 644c6-8 8-18 8-30s-2-24-6-38c-4-12-8-24-14-30-4-4-10-8-14-10-4-4-10-6-18-6s-14 4-20 10c-6 8-8 18-8 32 0 12 2 24 6 38s10 24 18 32c8 8 16 12 26 12 8 0 16-4 22-10z" />
<glyph unicode="&#xe028;" glyph-name="135-trabajo" d="M1002 816h-284c-10 64-66 114-134 114h-144c-68 0-124-50-134-114h-284c-12 0-22-10-22-22v-808c0-12 10-20 22-20h980c12 0 22 8 22 20v808c0 12-10 22-22 22zM440 888h144c44 0 82-30 92-72h-328c10 42 48 72 92 72zM42 772h940v-360h-400v20c0 12-10 22-22 22h-96c-12 0-22-10-22-22v-20h-400zM484 390v20h56v-72h-56zM982 8h-940v362h400v-54c0-12 10-22 22-22h96c12 0 22 10 22 22v54h400z" />
</font>
</defs>
</svg>
